Welcome Guest ( Log In | Register )

Объявления

* gmail.com упорно продолжает считать почту с нас "unsolicited" и отбивает в том числе и письма активации, поэтому просьба использовать альтернативные почтовые ящики.
------------
* gmail.com continues reject all mail from us as "unsolicited" (activation mails too) therefore please use alternate mail servers.
> Wolvennest - The Dark Path To The Light (2023), Experimental/Psychedelic Black Metal (D6)
post Oct 7 2023, 03:43:56
Post #1

Правь статус, ####!111
**************
Group: Металариец
Posts: 8,946
Releases: 7184
On Forums: 13 years 6 months
Thanks: 126572 time(s)
Italy


(IMG:https://metalarea.org/images/audiocovers/2023_Oct/acov_tid387107_thumb.jpg)

*Artist: Wolvennest
*Album: The Dark Path To The Light
*Year: 2023
*Genre: Experimental/Psychedelic Black Metal
*Country: Belgium (IMG:https://metalarea.org/forum/style_images/flags/Belgium.png)
*Format: mp3@CBR320kbps
*Size: 92MB

Tracklist:
1.Lost Civilizations 03:46
2.Adversaries 07:14
3.Deathless Love 07:04
4.The Timeless All And Nothing 06:01
5.The Dark Path To The Light 08:57
6.Accabadora 07:29
******************************
Total playing time: 40:31



Extended info
scene rip


Technical info
(IMG:https://metalarea.org/images/spectrogram/2023_Oct/d53f47f2b98ef50f98f6a084e043aa2f.png)
Input File: 04_wolvennest-the_timeless_all_and_nothing.mp3
Channels : 2
Sample Rate : 48000
Precision : 16-bit
Duration : 00:06:01.68 = 17360784 samples ~ 27126.2 CDDA sectors
File Size : 14.5M
Bit Rate : 320k
Sample Encoding: MPEG audio (layer I, II or III)
Comments :
Title=The Timeless All And Nothing
Artist=Wolvennest
Album=The Dark Path To The Light
Tracknumber=4/6
Year=2023
Genre=Black Metal



Register


Go to the top of the page
  Insert nick Quick quote
+Quote Post
 
Start new topic
Replies (1 - 5)
post Oct 7 2023, 06:32:17
Post #2

Up From The Grave
*********
Group: Металариец
Posts: 957
Releases: 125
From: Minsk
On Forums: 14 years 10 months
Thanks: 2566 time(s)
Belarus




Thanks:
Go to the top of the page
  Insert nick Quick quote
+Quote Post
post Oct 12 2023, 12:08:32
Post #3

Три Литра
***
Group: Завсегдатай
Posts: 200
Releases: 0
On Forums: 4 years 7 months
Thanks: 128 time(s)
Unknown


как-то слишком попсово, не цепляет (IMG:style_emoticons/default/smile2.gif) хотелось бы потяжелее. Заглавная композиция, конечно, красивая, особенно клип, но всё равно не хватает психоделики на мой вкус. И вообще маловато для альбома.
Go to the top of the page
  Insert nick Quick quote
+Quote Post
post Nov 1 2023, 13:56:01
Post #4

Три Литра
***
Group: Завсегдатай
Posts: 200
Releases: 0
On Forums: 4 years 7 months
Thanks: 128 time(s)
Unknown


в воскресение была на их концерте... ну очень понравилось!! (IMG:style_emoticons/default/17.gif) на дисках не зацепило то есть абсолютно, но живьём - это было что-то! Жирнющие гитары, так как все три (!) гитариста присутствовали, а солистка оказывается играет вживую на странном инструменте терменвокс! во-первых я вообще даже не представляла себе, как этот инструмент выглядит, а тут даже стала свидетелем как на нём играют! Весь концерт был просто шикарен, хотелось всё записать!


Thanks:
Go to the top of the page
  Insert nick Quick quote
+Quote Post
post Dec 6 2023, 21:37:03
Post #5

Group: Подсевший
Posts: 19
Releases: 0
On Forums: 17 years 5 months
Thanks: 0 time(s)
Russian Federation


FLAC, please (IMG:style_emoticons/default/pray.gif)
Go to the top of the page
  Insert nick Quick quote
+Quote Post
post Dec 7 2023, 06:29:31
Post #6

Grind the Human Scum
**********
Group: Металариец
Posts: 1,079
Releases: 18
On Forums: 17 years 4 months
Thanks: 1154 time(s)
Russian Federation


(IMG:style_emoticons/default/10.gif)
Register


Go to the top of the page
  Insert nick Quick quote
+Quote Post

Reply to this topicStart new topic
2 User(s) are reading this topic (2 Guests and 0 Anonymous Users)
0 Members:

 



- Lo-Fi Version Support form
Copyrights and abuse reports form
Time is now: 26th May 2024 - 10:52:49