Welcome Guest ( Log In | Register )

Объявления

* gmail.com упорно продолжает считать почту с нас "unsolicited" и отбивает в том числе и письма активации, поэтому просьба использовать альтернативные почтовые ящики.
------------
* gmail.com continues reject all mail from us as "unsolicited" (activation mails too) therefore please use alternate mail servers.
> Чорторий - Мисливці (2023), Folk Back Metal
post Oct 7 2023, 13:58:17
Post #1

...
**************
Group: Металариец
Posts: 3,720
Releases: 1560
From: МЕЩЁРА
On Forums: 16 years 1 month
Thanks: 46143 time(s)
Russian Federation


(IMG:https://metalarea.org/images/audiocovers/2023_Oct/acov_tid387122_thumb.jpg)

*Artist: Чорторий
*Album: Мисливці
*Year: 2023
*Genre: Folk Back Metal
*Country: Ukraine (IMG:https://metalarea.org/forum/style_images/flags/Ukraine.png)
*Format: mp3@CBR320kbps
*Size: 103MB

Tracklist:
1. Ми Йдем! (Forward We March!) 07:36
2. Чорторий (Chortoryi) 07:00
3. Місяць (The Moon) 05:50
4. Мисливці ( The Hunters) 06:57
5. Ода До Прийдешнього (Ode To The Futurity) 05:14
6. Вірш Душі (Poem Of The Soul) 08:32
7. Крик В Чорноті (Scream In The Black) 02:59
******************************
Total playing time: 44:08



Extended info
No Colours Records (CD, 500 copies)

Lyrics of Ukrainian poets were used on this album:
Track 1: Spyrydon Cherkasenko "Ми йдем!", 1919.
Track 2: Ukrainian Traditional Folklore Mysteries.
Track 5: Ievgen Malanyuk "Ода до прийдешнього", 1932.
Track 7: "Крик в чорноті", Vasyl' Stus "Немилосердно нас об вічність б'ють", circa 1980.


Technical info
(IMG:https://metalarea.org/images/spectrogram/2023_Oct/32e260417aaf7c6769ceeed7992602ee.png)
Input File: 1. Ми Йдем! (Forward We March!).mp3
Channels : 2
Sample Rate : 44100
Precision : 16-bit
Duration : 00:07:36.46 = 20129974 samples = 34234.6 CDDA sectors
File Size : 18.4M
Bit Rate : 322k
Sample Encoding: MPEG audio (layer I, II or III)
Comments :
Title=Ми Йдем! (Forward We March!)
Artist=Чорторий / Chortoryi
Album=Мисливці (The Hunters)
Tracknumber=1
Year=2023



Register


Go to the top of the page
  Insert nick Quick quote
+Quote Post
 
Start new topic
Replies (1 - 2)
post Oct 7 2023, 19:50:25
Post #2

Маньяк
**********
Group: Металариец
Posts: 1,026
Releases: 0
From: South Of Heaven
On Forums: 16 years 9 months
Thanks: 477 time(s)
Ukraine


mirror on mediаfire, please !
Go to the top of the page
  Insert nick Quick quote
+Quote Post
post Oct 7 2023, 21:21:15
Post #3

Шесть Литров
******
Group: Металариец
Posts: 584
Releases: 0
On Forums: 15 years 4 months
Thanks: 446 time(s)
Brazil


ЦИТАТА(russ777 @ Oct 7 2023, 21:50:25) *
mirror on mediаfire, please !


Register


Go to the top of the page
  Insert nick Quick quote
+Quote Post

Reply to this topicStart new topic
2 User(s) are reading this topic (2 Guests and 0 Anonymous Users)
0 Members:

 



- Lo-Fi Version Support form
Copyrights and abuse reports form
Time is now: 24th May 2024 - 21:27:14