Welcome Guest ( Log In | Register )

Объявления

* gmail.com упорно продолжает считать почту с нас "unsolicited" и отбивает в том числе и письма активации, поэтому просьба использовать альтернативные почтовые ящики.
------------
* gmail.com continues reject all mail from us as "unsolicited" (activation mails too) therefore please use alternate mail servers.
 
Reply to this topicStart new topic
> Vultures - Wreckage [demo] (2023), Death Metal
post Oct 9 2023, 16:00:42
Post #1

Правь статус, 616
**************
Group: Металариец
Posts: 11,032
Releases: 8985
From: 55°35’N 38°08’E
On Forums: 16 years 1 week
Thanks: 159965 time(s)
Russian Federation


(IMG:https://metalarea.org/images/audiocovers/2023_Oct/acov_tid387179_thumb.jpg)

*Artist: Vultures
*Album: Wreckage [demo]
*Year: 2023
*Genre: Death Metal
*Country: Indonesia (IMG:https://metalarea.org/forum/style_images/flags/Indonesia.png)
*Format: mp3@CBR320kbps
*Size: 21MB

Tracklist:
1. Blood and Iron 02:53
2. Crucified on a Burning Cross 02:49
3. Tortured 02:40
******************************
Total playing time: 8:22



Technical info
(IMG:https://metalarea.org/images/spectrogram/2023_Oct/fe586f76dab0cb270120d3b24616c6d2.png)
Input File: 01 Blood and Iron.mp3
Channels : 2
Sample Rate : 44100
Precision : 16-bit
Duration : 00:02:53.88 = 7668240 samples = 13041.2 CDDA sectors
File Size : 7.17M
Bit Rate : 330k
Sample Encoding: MPEG audio (layer I, II or III)
Comments :
Title=Blood and Iron
Artist=Vultures
Album=WRECKAGE
Tracknumber=1
Year=2023
Genre=Death Metal



Register


Go to the top of the page
  Insert nick Quick quote
+Quote Post

Reply to this topicStart new topic
1 User(s) are reading this topic (1 Guests and 0 Anonymous Users)
0 Members:

 



- Lo-Fi Version Support form
Copyrights and abuse reports form
Time is now: 19th July 2024 - 13:59:54