Welcome Guest ( Log In | Register )

Объявления

* gmail.com упорно продолжает считать почту с нас "unsolicited" и отбивает в том числе и письма активации, поэтому просьба использовать альтернативные почтовые ящики.
------------
* gmail.com continues reject all mail from us as "unsolicited" (activation mails too) therefore please use alternate mail servers.
> Body Void - Atrocity Machine (2023), Sludge/Doom/Noise/Drone Metal (D4)
post Oct 12 2023, 14:16:14
Post #1

Trickster
Group Icon
Group: V.I.P
Posts: 6,578
Releases: 322
On Forums: 13 years 5 months
Thanks: 15284 time(s)
Russian Federation


(IMG:https://metalarea.org/images/audiocovers/2023_Oct/acov_tid387322_thumb.jpg)

*Artist: Body Void
*Album: Atrocity Machine
*Year: 2023
*Genre: Sludge/Doom/Noise/Drone Metal
*Country: United States (IMG:https://metalarea.org/forum/style_images/flags/United%20States.png)
*Format: mp3@CBR320kbps
*Size: 100MB

Tracklist:
01. Microwave 00:28
02. Human Greenhouse 07:23
03. Flesh Market 06:43
04. Cop Show 08:28
05. Divine Violence 10:03
06. Atrocity Machine 10:41
******************************
Total playing time: 43:46



Extended info
Produced, Recorded, and Mixed by Ben Greenberg in January-February 2023 at Applehead Studios in Woodstock, NY and Circular Ruin Studios in Brooklyn, NY
Mastered by Brad Boatright at Audiosiege in Portland, OR
Artwork by Ethan Lee McCarthy
Photos by Skyeler Williams

Willow Ryan: Guitar, Synths, Bass, Vocals
Eddie Holgerson: Drums, Percussion
Janys-Iren Faughn: Electronics, Samples


Technical info
(IMG:https://metalarea.org/images/spectrogram/2023_Oct/17bcae52963894326170163dc27a2037.png)
Input File: 03. Flesh Market.mp3
Channels : 2
Sample Rate : 44100
Precision : 16-bit
Duration : 00:06:44.06 = 17818958 samples = 30304.4 CDDA sectors
File Size : 16.2M
Bit Rate : 320k
Sample Encoding: MPEG audio (layer I, II or III)
Comments :
Title=Flesh Market
Artist=Body Void
Album=Atrocity Machine
Tracknumber=3/6
Year=2023-10-13
Discnumber=1/1



Register


Go to the top of the page
  Insert nick Quick quote
+Quote Post
 
Start new topic
Replies (1 - 6)
post Oct 12 2023, 17:48:13
Post #2

De Mysteriis Dom Sathanas
**************
Group: Металариец
Posts: 4,826
Releases: 64
From: Doom
On Forums: 16 years 1 week
Thanks: 4309 time(s)
Russian Federation


Daale, а куда твой Криг делся из ветки? У меня правда винда заблокировала файл из-за трояна
Go to the top of the page
  Insert nick Quick quote
+Quote Post
post Oct 12 2023, 22:26:46
Post #3

Русский
********
Group: Металариец
Posts: 839
Releases: 0
From: Москва
On Forums: 17 years 10 months
Thanks: 265 time(s)
Russian Federation


Flac

Register


Thanks:
Go to the top of the page
  Insert nick Quick quote
+Quote Post
post Oct 13 2023, 06:11:57
Post #4

Trickster
Group Icon
Group: V.I.P
Posts: 6,578
Releases: 322
On Forums: 13 years 5 months
Thanks: 15284 time(s)
Russian Federation


RUSP73, Почему то дропнули в Find. Сейчас пофикшу, что там могло не понравится

P.S. Только недавно Dr. WEB'ом проверял компьютер на всякий случай. Вроде не было проблем
Go to the top of the page
  Insert nick Quick quote
+Quote Post
post Oct 14 2023, 10:54:13
Post #5

De Mysteriis Dom Sathanas
**************
Group: Металариец
Posts: 4,826
Releases: 64
From: Doom
On Forums: 16 years 1 week
Thanks: 4309 time(s)
Russian Federation


ЦИТАТА(Daale @ Oct 13 2023, 08:11:57) *
RUSP73, Почему то дропнули в Find. Сейчас пофикшу, что там могло не понравится

P.S. Только недавно Dr. WEB'ом проверял компьютер на всякий случай. Вроде не было проблем

У меня штатный антивирь заблокировал файл, причем как критическую угрозу Trojan:Script/Wacatac.B!ml
В инете пишут -
"Wacatac.B!ml классифицируется Защитником Windows как троянская вирусная программа, а проникает она в систему, обманув антивирус и замаскировавшись под легальное ПО.

Из плюсов — этот троян известен AV
Из минусов — от него трудно избавиться, если он проник в систему
После заражения системы Wacatac.B!ml начинает свою зловредную работу: кража конфиденциальной информации, заражение персональных и системных файлов. Внедрение в систему дополнительных вредоносных утилит, которые, используя ресурсы компьютера, станут майнить крипту или сделают ваш ПК ячейкой ботнета, ещё больше снизит его производительность."


Thanks:
(1) Daale,
Go to the top of the page
  Insert nick Quick quote
+Quote Post
post Oct 14 2023, 12:08:34
Post #6

Trickster
Group Icon
Group: V.I.P
Posts: 6,578
Releases: 322
On Forums: 13 years 5 months
Thanks: 15284 time(s)
Russian Federation



RUSP73, Я проверял разными утилитами, они как раз такое очень хорошо палят. Ничего не было, я на ночь проверку специально сделал вновь. Ну, в любом случае скоро сносить ПО под чистый лист.
Go to the top of the page
  Insert nick Quick quote
+Quote Post
post Jan 25 2024, 08:05:56
Post #7

मृत्यु
**************
Group: Металариец
Posts: 3,621
Releases: 24
On Forums: 14 years 2 days
Thanks: 2380 time(s)
Antarctica


Register


Go to the top of the page
  Insert nick Quick quote
+Quote Post

Reply to this topicStart new topic
2 User(s) are reading this topic (2 Guests and 0 Anonymous Users)
0 Members:

 



- Lo-Fi Version Support form
Copyrights and abuse reports form
Time is now: 23rd July 2024 - 20:58:35