Welcome Guest ( Log In | Register )

> Electrocutioner - False Idol (2023), Thrash Metal
post Oct 12 2023, 15:15:15
Post #1

Правь статус, ####!111
**************
Group: Металариец
Posts: 35,573
Releases: 26477
From: Г.Харьков
On Forums: 11 years 11 months
Thanks: 572374 time(s)
Ukraine


(IMG:https://metalarea.org/images/audiocovers/2023_Oct/acov_tid387336_thumb.jpg)

*Artist: Electrocutioner
*Album: False Idol
*Year: 2023
*Genre: Thrash Metal
*Country: United States (IMG:https://metalarea.org/forum/style_images/flags/United%20States.png)
*Format: mp3@CBR320kbps
*Size: 80MB

Tracklist:
1. Earth Ender 00:48 instrumental
2. Revenger 02:42
3. False Idols 03:20
4. The Guillotine 04:09
5. Collector's Debt 03:01
6. Ancient Waters 00:52 instrumental
7. Throne Possessor 02:09
8. Seven Lamps of Fire 04:25
9. Lost in the Eye of the Void 01:36 instrumental
10. Asleep at the Wheel 03:27
11. Children of the New Dawn 03:27
12. Plague Winds 00:52 instrumental
13. Execution of the Witches 03:35
******************************
Total playing time: 34:23



Extended info
Rich Nieves Bass
Mark Pursino Guitars, Vocals, Synthezisers, Lyrics
Tyler Bogliole Drums


Technical info
(IMG:https://metalarea.org/images/spectrogram/2023_Oct/7fe2ef057d53161b0e95b7140a408050.png)
Input File: 08 - Electrocutioner - Seven Lamps of Fire(Explicit).mp3
Channels : 2
Sample Rate : 44100
Precision : 16-bit
Duration : 00:04:25.92 = 11726852 samples = 19943.6 CDDA sectors
File Size : 11.0M
Bit Rate : 331k
Sample Encoding: MPEG audio (layer I, II or III)
Comments :
Title=Seven Lamps of Fire
Artist=Electrocutioner
Album=False Idols
Tracknumber=8/13
Year=2023
Discnumber=1/1



Register


Go to the top of the page
  Insert nick Quick quote
+Quote Post
 
Start new topic
Replies (1 - 1)
post Nov 20 2023, 22:54:25
Post #2

Три Литра
***
Group: Завсегдатай
Posts: 262
Releases: 0
On Forums: 12 years 10 months
Thanks: 68 time(s)
Lithuania


FLAC есть?
Go to the top of the page
  Insert nick Quick quote
+Quote Post

Reply to this topicStart new topic
1 User(s) are reading this topic (1 Guests and 0 Anonymous Users)
0 Members:

 



- Lo-Fi Version Support form
Copyrights and abuse reports form
Time is now: 17th April 2024 - 22:35:43