Welcome Guest ( Log In | Register )

> Taubrą - Therizo (2023), Black Metal
post Oct 12 2023, 16:08:13
Post #1

Serial Uploader
Group Icon
Group: V.I.P
Posts: 41,948
Releases: 40018
From: Lithuania
On Forums: 15 years 8 months
Thanks: 509582 time(s)
Lithuania


(IMG:https://metalarea.org/images/audiocovers/2023_Oct/acov_tid387344_thumb.jpg)

*Artist: Taubrą
*Album: Therizo
*Year: 2023
*Genre: Black Metal
*Country: Switzerland (IMG:https://metalarea.org/forum/style_images/flags/Switzerland.png)
*Format: mp3@CBR320kbps
*Size: 96MB

Tracklist:
1. Intro 01:05
2. Congregation of the Unholy 06:23
3. Sigd 04:48
4. Reek of the Earth 05:29
5. Dire Necropolis 05:08
6. Rembrandt of Death 05:27
7. Vale of the Taubra 06:35
8. Therizo 05:30
9. Outro 00:51
******************************
Total playing time: 41:16


Preview 2

(IMG:https://metalarea.org/images/youtube.png)

Technical info
(IMG:https://metalarea.org/images/spectrogram/2023_Oct/023046f34963c8919745600a5fb9cdcc.png)
Input File: 02 - Congregation of the Unholy.mp3
Channels : 2
Sample Rate : 44100
Precision : 16-bit
Duration : 00:06:23.00 = 16890300 samples = 28725 CDDA sectors
File Size : 15.5M
Bit Rate : 324k
Sample Encoding: MPEG audio (layer I, II or III)
Comments :
Title=Congregation of the Unholy
Artist=Taubra
Album=Therizo
Tracknumber=2
Year=2023-10-13
Genre=Metal
Discnumber=1



Register


Go to the top of the page
  Insert nick Quick quote
+Quote Post
 
Start new topic
Replies (1 - 9)
post Oct 12 2023, 16:25:56
Post #2

______________
***********
Group: Металариец
Posts: 1,630
Releases: 0
On Forums: 4 years 3 months
Thanks: 507 time(s)
Unknown


"Sigd" – кайфовая композиция!


Thanks:
(1) Chasm,
Go to the top of the page
  Insert nick Quick quote
+Quote Post
post Oct 12 2023, 16:29:18
Post #3

Serial Uploader
Group Icon
Group: V.I.P
Posts: 41,948
Releases: 40018
From: Lithuania
On Forums: 15 years 8 months
Thanks: 509582 time(s)
Lithuania


QUOTE(Vidyadharov @ Oct 12 2023, 18:25:56) *
"Sigd" – кайфовая композиция!


По первому прослушанию, весь альбом- огненный башкотряс. (IMG:style_emoticons/default/true_black.gif)
Go to the top of the page
  Insert nick Quick quote
+Quote Post
post Oct 13 2023, 01:48:19
Post #4

Два Литра
**
Group: Завсегдатай
Posts: 166
Releases: 0
On Forums: 5 years 2 months
Thanks: 51 time(s)
Russian Federation


Поддерживаю в ораторов, расположившихся выше. Приличный образец Black metal.
Атмосфера и мелодическая часть хороши в особенности.
Go to the top of the page
  Insert nick Quick quote
+Quote Post
post Oct 13 2023, 15:33:15
Post #5

______________
***********
Group: Металариец
Posts: 1,630
Releases: 0
On Forums: 4 years 3 months
Thanks: 507 time(s)
Unknown


Вокал местами немного не сочетается с музыкой, хотя сам по себе неплохой. Вокалист, между прочим, из Норвегии.
Go to the top of the page
  Insert nick Quick quote
+Quote Post
post Oct 14 2023, 13:50:01
Post #6

Маньяк
**********
Group: Металариец
Posts: 1,001
Releases: 0
From: Лыткарино
On Forums: 4 years 9 months
Thanks: 285 time(s)
Russian Federation


Неплохой, но рядовой блэк, слушать можно, в принципе. 7/10
Go to the top of the page
  Insert nick Quick quote
+Quote Post
post Oct 17 2023, 11:18:36
Post #7

Восемь Литров
********
Group: Металариец
Posts: 874
Releases: 0
From: Vilnius
On Forums: 17 years 4 days
Thanks: 351 time(s)
Lithuania


Очень славное, монолитное произведение.
Go to the top of the page
  Insert nick Quick quote
+Quote Post
post Oct 17 2023, 14:19:13
Post #8

I hate you all
**************
Group: Металариец
Posts: 3,406
Releases: 108
From: Ukraine
On Forums: 16 years 9 months
Thanks: 8449 time(s)
Ukraine


Отменный альбом!!!
Go to the top of the page
  Insert nick Quick quote
+Quote Post
post Oct 17 2023, 22:01:25
Post #9

Правь статус, ####!111
**************
Group: Металариец
Posts: 2,393
Releases: 0
On Forums: 14 years 11 months
Thanks: 974 time(s)
Antarctica


Скучный, банальный блэк.


Thanks:
(1) ghoulvis,
Go to the top of the page
  Insert nick Quick quote
+Quote Post
post Nov 27 2023, 17:38:46
Post #10

Common dweller of hell
**************
Group: Металариец
Posts: 5,236
Releases: 12
From: Dnipro
On Forums: 15 years 7 months
Thanks: 2120 time(s)
Ukraine


Отличнейший BM c большим влиянием melodic black metal.
Тут участники из Malphas, Forgotten Tomb и др.
Go to the top of the page
  Insert nick Quick quote
+Quote Post

Reply to this topicStart new topic
2 User(s) are reading this topic (2 Guests and 0 Anonymous Users)
0 Members:

 



- Lo-Fi Version Support form
Copyrights and abuse reports form
Time is now: 22nd February 2024 - 15:13:01