Welcome Guest ( Log In | Register )

Объявления

* gmail.com упорно продолжает считать почту с нас "unsolicited" и отбивает в том числе и письма активации, поэтому просьба использовать альтернативные почтовые ящики.
------------
* gmail.com continues reject all mail from us as "unsolicited" (activation mails too) therefore please use alternate mail servers.
> The Lion's Daughter - Bath House (2023), Progressive/Blackened Sludge (D8)
post Oct 13 2023, 23:47:48
Post #1

Правь статус, ####!111
**************
Group: Металариец
Posts: 35,941
Releases: 26785
From: Г.Харьков
On Forums: 12 years 2 weeks
Thanks: 581047 time(s)
Ukraine


(IMG:https://metalarea.org/images/audiocovers/2023_Oct/acov_tid387428_thumb.jpg)

*Artist: The Lion's Daughter
*Album: Bath House
*Year: 2023
*Genre: Progressive/Blackened Sludge
*Country: United States (IMG:https://metalarea.org/forum/style_images/flags/United%20States.png)
*Format: mp3@CBR320kbps
*Size: 91MB

Tracklist:
1. Bath House 04:11
2. Maximize Terror 03:24
3. Your Pets Died on TV 04:19
4. Liminal Blue 04:11
5. Rerouted 04:22
6. 12-31-89 04:47
7. Crawler Night 05:13
8. She Does Not Exist 03:40
9. End Credits 05:18
******************************
Total playing time: 39:25




Extended info
Erik Ramsier Drums (2007-present)
Scott Fogelbach Guitars (2007-2008), Bass (2011-present)
See also: Bastard, ex-Harkonin, ex-Love Lost But Not Forgotten, ex-Rue Morgue, ex-This Incredible Machine
Rick Giordano Guitars, Vocals (2007-present)
See also: Ssothm, ex-Calico System


Technical info
(IMG:https://metalarea.org/images/spectrogram/2023_Oct/567d836642ecbbba542f9a97b768e249.png)
Input File: 07 - Crawler Night.mp3
Channels : 2
Sample Rate : 44100
Precision : 16-bit
Duration : 00:05:13.00 = 13803300 samples = 23475 CDDA sectors
File Size : 12.6M
Bit Rate : 322k
Sample Encoding: MPEG audio (layer I, II or III)
Comments :
Title=Crawler Night
Artist=The Lion's Daughter
Album=Bath House
Tracknumber=7
Year=2023-10-13
Genre=メタル
Discnumber=1



Register


Go to the top of the page
  Insert nick Quick quote
+Quote Post
 
Start new topic
Replies (1 - 6)
post Oct 14 2023, 08:51:07
Post #2

Up From The Grave
*********
Group: Металариец
Posts: 957
Releases: 125
From: Minsk
On Forums: 14 years 10 months
Thanks: 2566 time(s)
Belarus


Go to the top of the page
  Insert nick Quick quote
+Quote Post
post Oct 14 2023, 08:59:23
Post #3

Don't be negative.
**************
Group: Металариец
Posts: 2,965
Releases: 776
From: Earthmother
On Forums: 13 years 8 months
Thanks: 10557 time(s)
Ukraine


Много намешано, Metallica + Neurosis + Depeche Mode + Shining. Но звучит приятно. В теги бы добавил Thrash Metal.
Go to the top of the page
  Insert nick Quick quote
+Quote Post
post Oct 14 2023, 09:08:56
Post #4

a caress of pale light
**************
Group: Металариец
Posts: 8,659
Releases: 13
On Forums: 14 years 6 months
Thanks: 4437 time(s)
Unknown


Говоря о главном, т.е. об облоге - не думал шо львиная дочь такая стрёмная.


Thanks:
Go to the top of the page
  Insert nick Quick quote
+Quote Post
post Oct 14 2023, 09:22:42
Post #5

Правь статус, ####!111
**************
Group: Металариец
Posts: 6,898
Releases: 0
On Forums: 8 years 3 months
Thanks: 4311 time(s)
Russian Federation


ЦИТАТА(Chasm @ 14th October 2023 - 13:08:56) *
Говоря о главном, т.е. об облоге - не думал шо львиная дочь такая стрёмная.

вот к чему приводят неразборчивые связи не на трезвую голову.


Thanks:
Go to the top of the page
  Insert nick Quick quote
+Quote Post
post Oct 16 2023, 16:44:49
Post #6

Trickster
Group Icon
Group: V.I.P
Posts: 6,510
Releases: 322
On Forums: 13 years 3 months
Thanks: 15227 time(s)
Russian Federation


ЦИТАТА(KoreanGringo @ 14th October 2023 - 12:59:23) *
Много намешано, Metallica + Neurosis + Depeche Mode + Shining. Но звучит приятно. В теги бы добавил Thrash Metal.


А ещё Henry Cow, Burzum, Anthrax, творчество Дьёрда Лигети и конечно же сверху, как посыпка, группа Rammstein. Добавил бы в теги Dark Cabaret, Indie Rock и точно не отказался бы от Progressive Melodic Post Deathgazing


Go to the top of the page
  Insert nick Quick quote
+Quote Post
post Oct 16 2023, 19:16:05
Post #7

Маньяк
**********
Group: Металариец
Posts: 1,232
Releases: 0
From: Isla de Margarita, Venezuela
On Forums: 5 years 4 months
Thanks: 391 time(s)
Venezuela


Alternative Metal con algunas dosis de ruido. Nada destacable (este año ha habido mejores álbumes). (IMG:style_emoticons/default/21.gif)

...........................

Альтернативный метал с небольшим количеством нойза. Ничего примечательного (в этом году были альбомы и получше). (IMG:style_emoticons/default/21.gif)

...........................

Alternative Metal with some doses of noise. Nothing remarkable (there have been better albums this year). (IMG:style_emoticons/default/21.gif)
Go to the top of the page
  Insert nick Quick quote
+Quote Post

Reply to this topicStart new topic
1 User(s) are reading this topic (1 Guests and 0 Anonymous Users)
0 Members:

 



- Lo-Fi Version Support form
Copyrights and abuse reports form
Time is now: 26th May 2024 - 09:23:17