Welcome Guest ( Log In | Register )

> Tanork - Destined To Die... (2023), Death Metal
post Oct 16 2023, 01:30:41
Post #1

Правь статус, ####!111
**************
Group: Металариец
Posts: 35,043
Releases: 26055
From: Г.Харьков
On Forums: 11 years 9 months
Thanks: 560669 time(s)
Ukraine


(IMG:https://metalarea.org/images/audiocovers/2023_Oct/acov_tid387543_thumb.jpg)

*Artist: Tanork
*Album: Destined To Die...
*Year: 2023
*Genre: Death Metal
*Country: France (IMG:https://metalarea.org/forum/style_images/flags/France.png)
*Format: mp3@CBR320kbps
*Size: 74MB

Tracklist:
1. Intro 02:00
2. Enhanced Surveillance 03:18
3. Ar Bed Edan ar Mor 04:02
4. Space Wind (feat. Tasmant) 03:21
5. Frog's Genocide 03:28
6. Destined to Die 03:45
7. Enebourion ar Peoc'h 06:03
8. Kerfank 06:23
******************************
Total playing time: 32:20

(IMG:https://metalarea.org/images/youtube.png)


Technical info
(IMG:https://metalarea.org/images/spectrogram/2023_Oct/e54ce36587a2b50e72a6ec1f17428138.png)
Input File: 07 - Enebourion ar Peoc\'h.mp3
Channels : 2
Sample Rate : 44100
Precision : 16-bit
Duration : 00:06:03.00 = 16008300 samples = 27225 CDDA sectors
File Size : 14.6M
Bit Rate : 322k
Sample Encoding: MPEG audio (layer I, II or III)
Comments :
Title=Enebourion ar Peoc'h
Artist=Tanork
Album=Destined to Die...
Tracknumber=7
Year=2023-10-15
Genre=メタル
Discnumber=1



Register


Go to the top of the page
  Insert nick Quick quote
+Quote Post
 
Start new topic
Replies (1 - 2)
post Oct 16 2023, 02:57:12
Post #2

Правь статус, ####!111
**************
Group: Металариец
Posts: 35,043
Releases: 26055
From: Г.Харьков
On Forums: 11 years 9 months
Thanks: 560669 time(s)
Ukraine


FLAC (Tracks) 232 mb
Register


Go to the top of the page
  Insert nick Quick quote
+Quote Post
post Feb 12 2024, 09:39:45
Post #3

Правь статус, ####!111
**************
Group: Металариец
Posts: 2,355
Releases: 373
From: Bretagne
On Forums: 15 years 9 months
Thanks: 4651 time(s)
France


thanks, this band if from my region (IMG:style_emoticons/default/smile1.gif)
new youtube link
https://youtu.be/-7EHURbHPTU?si=XQOg3HRy5shhrgYN


Thanks:
Go to the top of the page
  Insert nick Quick quote
+Quote Post

Reply to this topicStart new topic
2 User(s) are reading this topic (2 Guests and 0 Anonymous Users)
0 Members:

 



- Lo-Fi Version Support form
Copyrights and abuse reports form
Time is now: 26th February 2024 - 07:37:36