Welcome Guest ( Log In | Register )

Объявления

* gmail.com упорно продолжает считать почту с нас "unsolicited" и отбивает в том числе и письма активации, поэтому просьба использовать альтернативные почтовые ящики.
------------
* gmail.com continues reject all mail from us as "unsolicited" (activation mails too) therefore please use alternate mail servers.
> Black Pastel - The Black Rose Shedding Pedals [ep] (2023), Atmospheric/Post-Black Metal
post Oct 17 2023, 20:46:46
Post #1

Правь статус, 616
**************
Group: Металариец
Posts: 10,766
Releases: 8769
From: 55°35’N 38°08’E
On Forums: 15 years 10 months
Thanks: 155872 time(s)
Russian Federation


(IMG:https://metalarea.org/images/audiocovers/2023_Oct/acov_tid387597_thumb.jpg)

*Artist: Black Pastel
*Album: The Black Rose Shedding Pedals [ep]
*Year: 2023
*Genre: Atmospheric/Post-Black Metal
*Country: United States (IMG:https://metalarea.org/forum/style_images/flags/United%20States.png)
*Format: mp3@CBR320kbps
*Size: 55MB

Tracklist:
1.Castle Keeper 06:09
2.A Sword And A Thousand Roses 04:38
3.Magic On The Mantel 04:16
4.The Crying Orc 03:40
5.Nadja 05:06
******************************
Total playing time: 23:49

(IMG:https://metalarea.org/images/youtube.png)
(IMG:https://metalarea.org/images/youtube.png)

Technical info
(IMG:https://metalarea.org/images/spectrogram/2023_Oct/9801c4521e288a4aacf8dde2068c7d15.png)
Input File: 01 Castle Keeper.mp3
Channels : 2
Sample Rate : 44100
Precision : 16-bit
Duration : 00:06:09.66 = 16301830 samples = 27724.2 CDDA sectors
File Size : 14.9M
Bit Rate : 323k
Sample Encoding: MPEG audio (layer I, II or III)
Comments :
Title=Castle Keeper
Artist=Black Pastel
Album=The Black Rose Shedding Pedals
Tracknumber=1
Year=2023
Genre=Black Metal



Register


Go to the top of the page
  Insert nick Quick quote
+Quote Post
 
Start new topic
Replies (1 - 3)
post Oct 18 2023, 12:20:32
Post #2

Три Литра
***
Group: Завсегдатай
Posts: 200
Releases: 0
On Forums: 4 years 7 months
Thanks: 128 time(s)
Unknown


постаралась себе представить, как именно The Black Rose is Shedding PeDals..... (IMG:style_emoticons/default/15.gif)
если английский язык не родной, то логично было бы хотя бы использовать google translator и/или spellcheck, чтобы вот так вот не позориться... (IMG:style_emoticons/default/1488.gif)


Thanks:
Go to the top of the page
  Insert nick Quick quote
+Quote Post
post Oct 18 2023, 15:09:43
Post #3

Правь статус, ####!111
**************
Group: Металариец
Posts: 55,976
Releases: 1200
On Forums: 14 years 11 months
Thanks: 54815 time(s)
Russian Federation


Название 4 песни у Пуррзума подтырили, а 5ю песню назвали в честь канадцев...Арихиналы)))


Thanks:
Go to the top of the page
  Insert nick Quick quote
+Quote Post
post Oct 20 2023, 10:17:11
Post #4

Два Литра
**
Group: Завсегдатай
Posts: 175
Releases: 5
On Forums: 10 years 3 months
Thanks: 202 time(s)
Serbia


ЦИТАТА(vosmidesijatye @ Oct 18 2023, 15:09:43) *
5ю песню назвали в честь канадцев


Возможно, что в честь произведения Андре Бретона (как и канадцы, кстати)
Go to the top of the page
  Insert nick Quick quote
+Quote Post

Reply to this topicStart new topic
2 User(s) are reading this topic (2 Guests and 0 Anonymous Users)
0 Members:

 



- Lo-Fi Version Support form
Copyrights and abuse reports form
Time is now: 26th May 2024 - 10:33:26