Welcome Guest ( Log In | Register )

Объявления

* gmail.com упорно продолжает считать почту с нас "unsolicited" и отбивает в том числе и письма активации, поэтому просьба использовать альтернативные почтовые ящики.
------------
* gmail.com continues reject all mail from us as "unsolicited" (activation mails too) therefore please use alternate mail servers.
> Aldaaron - Majestic Heights, Melancholic Depths (2023), Pagan Black Metal (D5)
post Oct 19 2023, 15:31:34
Post #1

Serial Uploader
Group Icon
Group: V.I.P
Posts: 42,595
Releases: 40661
From: Lithuania
On Forums: 15 years 11 months
Thanks: 521144 time(s)
Lithuania


(IMG:https://metalarea.org/images/audiocovers/2023_Oct/acov_tid387677_thumb.jpg)

*Artist: Aldaaron
*Album: Majestic Heights, Melancholic Depths
*Year: 2023
*Genre: Pagan Black Metal
*Country: France (IMG:https://metalarea.org/forum/style_images/flags/France.png)
*Format: mp3@CBR320kbps
*Size: 118MB

Tracklist:
1. Bannières De Nuit 04:23
2. Rôdeur Des Sommets 00:54
3. Monti Vagus 07:16
4. Voyageur Des Cimes 01:29
5. Chroniques Des Jours D'alors 08:31
6. La Bataille Approche 00:52
7. Les Tambours Et Le Fer 05:14
8. Impassibles Cénotaphes 06:10
9. The Knell And The World (Dawn Cover) 07:36
10. Pride And Sorrow - Ambient Mix (Bonus Track) 08:30
******************************
Total playing time: 50:55


Preview 2

(IMG:https://metalarea.org/images/youtube.png)

Technical info
(IMG:https://metalarea.org/images/spectrogram/2023_Oct/0836219ac1c15c4fb35b9723a3ca09cf.png)
Input File: 10 - Pride and sorrow (Ambient version).mp3
Channels : 2
Sample Rate : 44100
Precision : 16-bit
Duration : 00:08:30.00 = 22491000 samples = 38250 CDDA sectors
File Size : 20.6M
Bit Rate : 323k
Sample Encoding: MPEG audio (layer I, II or III)
Comments :
Title=Pride and sorrow (Ambient version)
Artist=Aldaaron
Album=Majestic Heights, Melancholic Depths
Tracknumber=10
Year=2023-10-20
Genre=Metal
Discnumber=1



Register


Go to the top of the page
  Insert nick Quick quote
+Quote Post
 
Start new topic
Replies (1 - 6)
post Oct 20 2023, 10:20:15
Post #2

Common dweller of hell
**************
Group: Металариец
Posts: 5,393
Releases: 12
From: Dnipro
On Forums: 15 years 10 months
Thanks: 2193 time(s)
Ukraine


Зачастили однако с альбомами (IMG:style_emoticons/default/hmm.gif)
Go to the top of the page
  Insert nick Quick quote
+Quote Post
post Oct 20 2023, 15:50:31
Post #3

Восемь Литров
********
Group: Металариец
Posts: 822
Releases: 18
On Forums: 6 years 2 months
Thanks: 3245 time(s)
Unknown


Harrison Ford is Han FLACo...

Register


Go to the top of the page
  Insert nick Quick quote
+Quote Post
post Oct 21 2023, 06:59:04
Post #4

Семь Литров
*******
Group: Металариец
Posts: 722
Releases: 1
On Forums: 16 years 1 week
Thanks: 438 time(s)
Russian Federation


Очень нравится мне эта малозаметная и затерявшаяся где-то внутри жанра группа. Ничего инновационного их релизы не предлагают, но, какие же кайфовые и атмосферные, на мой взгляд, рисунки, они создают из простых вещей! Что прошлый альбом, что этот, включаю и залипаю до самого конца. Отличная работа!
Go to the top of the page
  Insert nick Quick quote
+Quote Post
post Oct 21 2023, 07:08:37
Post #5

Шесть Литров
******
Group: Металариец
Posts: 521
Releases: 0
From: Лиски
On Forums: 12 years 10 months
Thanks: 106 time(s)
Russian Federation


ЦИТАТА(Strid @ Oct 21 2023, 06:59:04) *
Очень нравится мне эта малозаметная и затерявшаяся где-то внутри жанра группа. Ничего инновационного их релизы не предлагают, но, какие же кайфовые и атмосферные, на мой взгляд, рисунки, они создают из простых вещей! Что прошлый альбом, что этот, включаю и залипаю до самого конца. Отличная работа!

Согласен полностью.


Thanks:
(1) Strid,
Go to the top of the page
  Insert nick Quick quote
+Quote Post
post Oct 21 2023, 17:31:00
Post #6

Три Литра
***
Group: Завсегдатай
Posts: 200
Releases: 0
On Forums: 4 years 7 months
Thanks: 128 time(s)
Unknown


увидела Франция и Pagan Black, сразу уши навострились
тоже понравилось.

Strid, у вас хороший вкус, я заметила (IMG:style_emoticons/default/9.gif)
Go to the top of the page
  Insert nick Quick quote
+Quote Post
post Oct 22 2023, 08:26:18
Post #7

Common dweller of hell
**************
Group: Металариец
Posts: 5,393
Releases: 12
From: Dnipro
On Forums: 15 years 10 months
Thanks: 2193 time(s)
Ukraine


ЦИТАТА(Strid @ Oct 21 2023, 08:59:04) *
Очень нравится мне эта малозаметная и затерявшаяся где-то внутри жанра группа.

Не согласен, группа достаточно известная в этом стиле Black Metal
Go to the top of the page
  Insert nick Quick quote
+Quote Post

Reply to this topicStart new topic
1 User(s) are reading this topic (1 Guests and 0 Anonymous Users)
0 Members:

 



- Lo-Fi Version Support form
Copyrights and abuse reports form
Time is now: 24th May 2024 - 21:44:10