Welcome Guest ( Log In | Register )

> Astral Deliverance - Atonement (2023), Progressive Metal
post Oct 21 2023, 14:34:49
Post #1

Правь статус, ####!111
**************
Group: Металариец
Posts: 8,683
Releases: 6929
On Forums: 13 years 5 months
Thanks: 121692 time(s)
Italy


(IMG:https://metalarea.org/images/audiocovers/2023_Oct/acov_tid387757_thumb.jpg)

*Artist: Astral Deliverance
*Album: Atonement
*Year: 2023
*Genre: Progressive Metal
*Country: Italy (IMG:https://metalarea.org/forum/style_images/flags/Italy.png)
*Format: mp3@CBR320kbps
*Size: 100MB

Tracklist:
01.Intro 01:56
02.Atonement 05:04
03.Now Here 06:00
04.Marigold 07:05
05.Sundial 04:48
06.Parasite 06:53
07.Remembrance 03:40
08.Strand 07:30
******************************
Total playing time: 42:56


(IMG:https://metalarea.org/images/youtube.png)

Extended info
Female vox


Technical info
(IMG:https://metalarea.org/images/spectrogram/2023_Oct/4ed2251d2fef4a3c27de82b8facc034e.png)
Input File: 2.Atonement.mp3
Channels : 2
Sample Rate : 44100
Precision : 16-bit
Duration : 00:05:05.00 = 13450456 samples = 22874.9 CDDA sectors
File Size : 12.5M
Bit Rate : 328k
Sample Encoding: MPEG audio (layer I, II or III)
Comments :
Title=Atonement
Artist=Astral Deliverance
Album=Atonement
Tracknumber=2/8
Year=2023
Discnumber=1/1



Register


Go to the top of the page
  Insert nick Quick quote
+Quote Post
 
Start new topic
Replies (1 - 1)
post Oct 22 2023, 21:50:58
Post #2

Три Литра
***
Group: Завсегдатай
Posts: 251
Releases: 0
From: Odessa
On Forums: 16 years 3 months
Thanks: 55 time(s)
Ukraine


Для фанатов позднего The Gathering, неинтересно.


Thanks:
(1) avather,
Go to the top of the page
  Insert nick Quick quote
+Quote Post

Reply to this topicStart new topic
2 User(s) are reading this topic (2 Guests and 0 Anonymous Users)
0 Members:

 



- Lo-Fi Version Support form
Copyrights and abuse reports form
Time is now: 21st April 2024 - 12:14:26