Welcome Guest ( Log In | Register )

Объявления

* gmail.com упорно продолжает считать почту с нас "unsolicited" и отбивает в том числе и письма активации, поэтому просьба использовать альтернативные почтовые ящики.
------------
* gmail.com continues reject all mail from us as "unsolicited" (activation mails too) therefore please use alternate mail servers.
> Soulless Exhaustion - The Art In Atrocities (2023), Black Metal
post Oct 22 2023, 12:36:35
Post #1

Правь статус, ####!111
**************
Group: Металариец
Posts: 7,573
Releases: 6926
From: Одесса
On Forums: 15 years 11 months
Thanks: 80687 time(s)
Ukraine


(IMG:https://metalarea.org/images/audiocovers/2023_Oct/acov_tid387785_thumb.jpg)

*Artist: Soulless Exhaustion
*Album: The Art In Atrocities
*Year: 2023
*Genre: Black Metal
*Country: Norway (IMG:https://metalarea.org/forum/style_images/flags/Norway.png)
*Format: mp3@CBR320kbps
*Size: 136MB

Tracklist:
1. Endless Abyss 02:38 instrumental
2. Nuclear Fear 05:19
3. Astroid 06:11
4. An Familiar Dread 10:01
5. Denied Death 08:16
6. Tonight, I Die 06:18
7. Broken Dreams 07:55
8. Passage 06:26 instrumental
9. The Art in Atrocities 04:19
******************************
Total playing time: 57:23



Extended info
The Second Album To Be Released By Soulless Exhaustion. An Album With The Goal Of Capturing An Even Darker Sense Of Dread, Sorrow And Darkness.


Technical info
(IMG:https://metalarea.org/images/spectrogram/2023_Oct/d1bfaf681f92db3cf67d3c7c0c5ca009.png)
Input File: 04. An Familiar Dread.mp3
Channels : 2
Sample Rate : 44100
Precision : 16-bit
Duration : 00:10:01.87 = 26542511 samples = 45140.3 CDDA sectors
File Size : 24.2M
Bit Rate : 321k
Sample Encoding: MPEG audio (layer I, II or III)
Comments :
Title=An Familiar Dread
Artist=Soulless Exhaustion
Album=The Art In Atrocities
Tracknumber=4
Year=2023
Genre=138



Register


Go to the top of the page
  Insert nick Quick quote
+Quote Post
 
Start new topic
Replies (1 - 2)
post Oct 24 2023, 08:30:35
Post #2

Девять Литров
*********
Group: Металариец
Posts: 914
Releases: 0
From: Vilnius
On Forums: 17 years 3 months
Thanks: 377 time(s)
Lithuania



Хз,-мне совсем не зашло


Thanks:
(1) Condehate,
Go to the top of the page
  Insert nick Quick quote
+Quote Post
post Dec 17 2023, 22:24:40
Post #3

antithesis
**************
Group: Металариец
Posts: 4,104
Releases: 36
From: VRN
On Forums: 14 years 1 week
Thanks: 2709 time(s)
Russian Federation


reup, pls
Go to the top of the page
  Insert nick Quick quote
+Quote Post

Reply to this topicStart new topic
2 User(s) are reading this topic (2 Guests and 0 Anonymous Users)
0 Members:

 



- Lo-Fi Version Support form
Copyrights and abuse reports form
Time is now: 30th May 2024 - 19:37:05