Welcome Guest ( Log In | Register )

Объявления

* gmail.com упорно продолжает считать почту с нас "unsolicited" и отбивает в том числе и письма активации, поэтому просьба использовать альтернативные почтовые ящики.
------------
* gmail.com continues reject all mail from us as "unsolicited" (activation mails too) therefore please use alternate mail servers.

> И неформату есть предел.

Рэп/хип-хоп/шансон/поп удаляются. Для них есть свои порталы.

> Sopor Aeternus & The Ensemble Of Shadows - Alone At Sam's - An Evening With... (2023), Neoclassical Dark Wave (D13)
post Oct 31 2023, 10:41:15
Post #1

:3
**************
Group: Металариец
Posts: 5,128
Releases: 106
On Forums: 16 years 8 months
Thanks: 4302 time(s)
Russian Federation


(IMG:https://metalarea.org/images/audiocovers/2023_Oct/acov_tid388162_thumb.jpeg)

*Artist: Sopor Aeternus & The Ensemble Of Shadows
*Album: Alone At Sam's - An Evening With...
*Year: 2023
*Genre: Neoclassical Dark Wave
*Country: Germany (IMG:https://metalarea.org/forum/style_images/flags/Germany.png)
*Format: mp3@VBR265kbps
*Size: 140MB

Tracklist:
1. Evening 1:31
2. Come and Play With Us 5:37
3. Alone at Sam's 4:12
4. The Colours 4:01
5. Six Six Six 3:57
6. Nobody Home 3:35
7. The Great Annoyance 3:41
8. Dolls and Dead Things 3:22
9. Column 4:00
10. The House of Poe 2:34
11. Squares of Ha! 4:57
12. The Beast 4:10
13. Vortex 5:46
14. The Spell 5:05
15. These are the Rules 4:06
16. Counter:Spell 3:17
17. A Brief Visit to the House of Poe 3:41
18. You Can Always Play On Your Own 5:20
******************************
Total playing time: 1:12:52

Technical info
(IMG:https://metalarea.org/images/spectrogram/2023_Oct/c74f505cfa2cf4b3bc0b22ec855fa39b.png)
Input File: 02 - Come And Play With Us.mp3
Channels : 2
Sample Rate : 44100
Precision : 16-bit
Duration : 00:05:37.76 = 14895348 samples = 25332.2 CDDA sectors
File Size : 11.2M
Bit Rate : 266k
Sample Encoding: MPEG audio (layer I, II or III)
Comments :
Title=Come And Play With Us
Artist=Sopor Aeternus & The Ensemble Of Shadows
Album=Alone At Sam’s An Evening With...
Tracknumber=02/18
Year=2023
Genre=Darkwave



Register


Go to the top of the page
  Insert nick Quick quote
+Quote Post
 
Start new topic
Replies (1 - 9)
post Oct 31 2023, 19:09:10
Post #2

Forever Underground
**************
Group: Металариец
Posts: 12,181
Releases: 0
On Forums: 9 years 1 month
Thanks: 19778 time(s)
Unknown


Mirror
Register


Thanks:
Go to the top of the page
  Insert nick Quick quote
+Quote Post
post Nov 6 2023, 11:03:24
Post #3

:3
**************
Group: Металариец
Posts: 5,128
Releases: 106
On Forums: 16 years 8 months
Thanks: 4302 time(s)
Russian Federation


Лирика альбома описывает правила настольной игры, которая будет выпущена позже (IMG:style_emoticons/default/headcrab.png)
Go to the top of the page
  Insert nick Quick quote
+Quote Post
post Nov 25 2023, 14:43:54
Post #4

Правь статус, ####!111
**************
Group: Металариец
Posts: 55,976
Releases: 1200
On Forums: 14 years 11 months
Thanks: 54831 time(s)
Russian Federation


Такая группа выпускает сразу 2 новых релиза и молчание (IMG:style_emoticons/default/hung.gif)

Шуб, ты то че скажешь как фонад?
Go to the top of the page
  Insert nick Quick quote
+Quote Post
post Nov 25 2023, 16:15:48
Post #5

:3
**************
Group: Металариец
Posts: 5,128
Releases: 106
On Forums: 16 years 8 months
Thanks: 4302 time(s)
Russian Federation


Так себе альбом, слушать можно, но реально хороших треков 3-4 штуки всего. Прошлые два были лучше, там все треки отличные.
На этом мне понравились Come And Play With Us, The Colours и Column.
Go to the top of the page
  Insert nick Quick quote
+Quote Post
post Nov 25 2023, 16:17:38
Post #6

Правь статус, ####!111
**************
Group: Металариец
Posts: 55,976
Releases: 1200
On Forums: 14 years 11 months
Thanks: 54831 time(s)
Russian Federation


А ипи как?
Go to the top of the page
  Insert nick Quick quote
+Quote Post
post Nov 25 2023, 16:22:22
Post #7

:3
**************
Group: Металариец
Posts: 5,128
Releases: 106
On Forums: 16 years 8 months
Thanks: 4302 time(s)
Russian Federation


EP ваще муть какая-то.
Go to the top of the page
  Insert nick Quick quote
+Quote Post
post Nov 30 2023, 01:43:22
Post #8

:3
**************
Group: Металариец
Posts: 5,128
Releases: 106
On Forums: 16 years 8 months
Thanks: 4302 time(s)
Russian Federation


Go to the top of the page
  Insert nick Quick quote
+Quote Post
post Dec 7 2023, 15:06:17
Post #9

Маньяк
**********
Group: Металариец
Posts: 1,356
Releases: 0
On Forums: 8 years 10 months
Thanks: 339 time(s)
Poland


320kb
Register


Thanks:
(1) blaskhyrk,
Go to the top of the page
  Insert nick Quick quote
+Quote Post
post Dec 14 2023, 13:00:22
Post #10

Правь статус, ####!111
**************
Group: Металариец
Posts: 2,515
Releases: 6
From: Kyiv
On Forums: 16 years 6 months
Thanks: 326 time(s)
Ukraine


Не хватает для коллекции "The Rules" 2023
Go to the top of the page
  Insert nick Quick quote
+Quote Post

Reply to this topicStart new topic
2 User(s) are reading this topic (2 Guests and 0 Anonymous Users)
0 Members:

 



- Lo-Fi Version Support form
Copyrights and abuse reports form
Time is now: 26th May 2024 - 18:19:47