Welcome Guest ( Log In | Register )

Объявления

* gmail.com упорно продолжает считать почту с нас "unsolicited" и отбивает в том числе и письма активации, поэтому просьба использовать альтернативные почтовые ящики.
------------
* gmail.com continues reject all mail from us as "unsolicited" (activation mails too) therefore please use alternate mail servers.

> И неформату есть предел.

Рэп/хип-хоп/шансон/поп удаляются. Для них есть свои порталы.

> Sopor Aeternus & The Ensemble Of Shadows - The Colours [ep] (2023), Neoclassical Dark Wave (D13)
post Oct 31 2023, 10:47:14
Post #1

:3
**************
Group: Металариец
Posts: 5,128
Releases: 106
On Forums: 16 years 8 months
Thanks: 4302 time(s)
Russian Federation


(IMG:https://metalarea.org/images/audiocovers/2023_Oct/acov_tid388163_thumb.jpg)

*Artist: Sopor Aeternus & The Ensemble Of Shadows
*Album: The Colours [ep]
*Year: 2023
*Genre: Neoclassical Dark Wave
*Country: Germany (IMG:https://metalarea.org/forum/style_images/flags/Germany.png)
*Format: mp3@VBR262kbps
*Size: 35MB

Tracklist:
01 Purple 5:57
02 Black 5:21
03 Orange 4:12
04 White 2:50
******************************
Total playing time: 18:20

Technical info
(IMG:https://metalarea.org/images/spectrogram/2023_Oct/3a4b090649cefbb969f759af2893b7c6.png)
Input File: 01 - Purple.mp3
Channels : 2
Sample Rate : 44100
Precision : 16-bit
Duration : 00:05:57.93 = 15784669 samples = 26844.7 CDDA sectors
File Size : 11.9M
Bit Rate : 267k
Sample Encoding: MPEG audio (layer I, II or III)
Comments :
Title=Purple
Artist=Sopor Aeternus & The Ensemble Of Shadows
Album=The Colours
Tracknumber=01/04
Year=2023
Genre=Darkwave



Register


Go to the top of the page
  Insert nick Quick quote
+Quote Post
 
Start new topic
Replies (1 - 5)
post Oct 31 2023, 11:48:44
Post #2

Forever Underground
**************
Group: Металариец
Posts: 12,181
Releases: 0
On Forums: 9 years 1 month
Thanks: 19778 time(s)
Unknown


Mirror
Register


Thanks:
Go to the top of the page
  Insert nick Quick quote
+Quote Post
post Nov 4 2023, 08:24:47
Post #3

Мегаманьяк
***********
Group: Металариец
Posts: 1,835
Releases: 10
On Forums: 15 years 4 months
Thanks: 185 time(s)
Germany


QUOTE(thenecromancer @ Oct 31 2023, 11:48:44) *
Mirror

Hey. What is the password? metalarea.org doesn't work.
Go to the top of the page
  Insert nick Quick quote
+Quote Post
post Nov 4 2023, 09:14:57
Post #4

Forever Underground
**************
Group: Металариец
Posts: 12,181
Releases: 0
On Forums: 9 years 1 month
Thanks: 19778 time(s)
Unknown


QUOTE(deathic @ Nov 4 2023, 08:24:47) *
What is the password?

(IMG:style_emoticons/default/hmm.gif) I haven't set any password, try 123 (maybe will works, who knows...)
Anyhow, the download link in the original post is still working:
Sopor Aeternus & The Ensemble Of Shadows - The Colours [ep] (2023) [post #2794688]
Go to the top of the page
  Insert nick Quick quote
+Quote Post
post Nov 26 2023, 18:32:36
Post #5

Литр
*
Group: Подсевший
Posts: 98
Releases: 0
On Forums: 15 years 4 months
Thanks: 53 time(s)
Netherlands


QUOTE(thenecromancer @ Nov 4 2023, 09:14:57) *
(IMG:style_emoticons/default/hmm.gif) I haven't set any password, try 123 (maybe will works, who knows...)
Anyhow, the download link in the original post is still working:
Sopor Aeternus & The Ensemble Of Shadows - The Colours [ep] (2023) [post #2794688]

Unfortunately both links seem dead...
Go to the top of the page
  Insert nick Quick quote
+Quote Post
post Nov 26 2023, 19:37:27
Post #6

:3
**************
Group: Металариец
Posts: 5,128
Releases: 106
On Forums: 16 years 8 months
Thanks: 4302 time(s)
Russian Federation


Register


Thanks:
Go to the top of the page
  Insert nick Quick quote
+Quote Post

Reply to this topicStart new topic
2 User(s) are reading this topic (2 Guests and 0 Anonymous Users)
0 Members:

 



- Lo-Fi Version Support form
Copyrights and abuse reports form
Time is now: 26th May 2024 - 18:22:44