Welcome Guest ( Log In | Register )

> Hellsign - A Brand New Scar (2023), Death Metal
post Nov 5 2023, 02:34:01
Post #1

Правь статус, ####!111
**************
Group: Металариец
Posts: 35,557
Releases: 26469
From: Г.Харьков
On Forums: 11 years 11 months
Thanks: 572119 time(s)
Ukraine


(IMG:https://metalarea.org/images/audiocovers/2023_Nov/acov_tid388378_thumb.jpg)

*Artist: Hellsign
*Album: A Brand New Scar
*Year: 2023
*Genre: Death Metal
*Country: Chile (IMG:https://metalarea.org/forum/style_images/flags/Chile.png)
*Format: mp3@CBR320kbps
*Size: 76MB

Tracklist:
1. Undertaker 03:48
2. Self-confinement 04:33
3. Don't Give Up 03:09
4. Let the Pyre Burn 04:16
5. Serpents 04:26
6. A Brand New Scar 04:20
7. Roman Circus 05:31
8. No Matter How! 03:10
******************************
Total playing time: 33:13




Extended info
Edwin Fuentes Bass
See also: Abiogenesis
Nelson Candia Guitars
See also: ex-Acrimonious, ex-Plan Macabro
Esteban Medina Drums (2015-present)
See also: ex-Newen
Matías Ibáñez Vocals (2016-present)
See also: Endimion, Plan Macabro, Yafkan, ex-Asterion, ex-Lapsus Dei
Álvaro Remedi Guitars (2018-present)
See also: Bloody Creation, Larvae, ex-FalseGod, ex-Venerea


Technical info
(IMG:https://metalarea.org/images/spectrogram/2023_Nov/6de6ecbd8e9cf082482b43b7ecbbe3d2.png)
Input File: 07 - Roman Circus.mp3
Channels : 2
Sample Rate : 44100
Precision : 16-bit
Duration : 00:05:32.00 = 14641200 samples = 24900 CDDA sectors
File Size : 13.4M
Bit Rate : 324k
Sample Encoding: MPEG audio (layer I, II or III)
Comments :
Title=Roman Circus
Artist=Hellsign
Album=A Brand New Scar
Tracknumber=7
Year=2023-11-05
Genre=メタル
Discnumber=1



Register


Go to the top of the page
  Insert nick Quick quote
+Quote Post
 
Start new topic
Replies (1 - 1)
post Nov 5 2023, 02:55:42
Post #2

Правь статус, ####!111
**************
Group: Металариец
Posts: 35,557
Releases: 26469
From: Г.Харьков
On Forums: 11 years 11 months
Thanks: 572119 time(s)
Ukraine


FLAC (Tracks) 255 mb
Register


Go to the top of the page
  Insert nick Quick quote
+Quote Post

Reply to this topicStart new topic
1 User(s) are reading this topic (1 Guests and 0 Anonymous Users)
0 Members:

 



- Lo-Fi Version Support form
Copyrights and abuse reports form
Time is now: 16th April 2024 - 07:57:16