Welcome Guest ( Log In | Register )

Объявления

* gmail.com упорно продолжает считать почту с нас "unsolicited" и отбивает в том числе и письма активации, поэтому просьба использовать альтернативные почтовые ящики.
------------
* gmail.com continues reject all mail from us as "unsolicited" (activation mails too) therefore please use alternate mail servers.
> Gama Bomb - Bats (2023), Thrash Metal
post Nov 9 2023, 12:42:10
Post #1

Правь статус, ####!111
**************
Group: Металариец
Posts: 35,941
Releases: 26785
From: Г.Харьков
On Forums: 12 years 2 weeks
Thanks: 581048 time(s)
Ukraine


(IMG:https://metalarea.org/images/audiocovers/2023_Nov/acov_tid388481_thumb.jpg)

*Artist: Gama Bomb
*Album: Bats
*Year: 2023
*Genre: Thrash Metal
*Country: Ireland (IMG:https://metalarea.org/forum/style_images/flags/Ireland.png)
*Format: mp3@CBR320kbps
*Size: 85MB

Tracklist:
1. Prologue: Under the Pyramids 00:51
2. Egyptron 05:00
3. Living Dead in Beverly Hills 02:18
4. Rusted Gold 03:57
5. Materialize 02:54
6. Mask of Anarchy 02:46
7. Don't Get Your Hair Cut 03:10
8. Dreamstealer 02:22
9. Speed Funeral 03:13
10. Secular Saw 03:46
11. Bats in Your Hair 04:11
******************************
Total playing time: 34:28



Extended info
Joe McGuigan Bass, Vocals
Philly Byrne Vocals
Domo Dixon Guitars (lead)
John Roche Guitars (rhythm)



Technical info
(IMG:https://metalarea.org/images/spectrogram/2023_Nov/7b7793eb4651bae5a1498d469c08bae3.png)
Input File: 02 - Egyptron.mp3
Channels : 2
Sample Rate : 44100
Precision : 16-bit
Duration : 00:05:00.00 = 13230000 samples = 22500 CDDA sectors
File Size : 12.5M
Bit Rate : 333k
Sample Encoding: MPEG audio (layer I, II or III)
Comments :
Title=Egyptron
Artist=Gama Bomb/The Egyptian Lover
Album=BATS
Tracknumber=2
Year=2023-11-10
Genre=Metal
Discnumber=1



Register


Go to the top of the page
  Insert nick Quick quote
+Quote Post
 
Start new topic
Replies (1 - 7)
post Nov 9 2023, 13:30:40
Post #2

Добрейшей души Мегаманьяк
**************
Group: Металариец
Posts: 2,348
Releases: 0
From: Bashkortostan, Таптыҡ
On Forums: 16 years 3 months
Thanks: 1124 time(s)
Russian Federation


Не Citizen Brain конечно, но вполне себе достойный happy thrash metal
Go to the top of the page
  Insert nick Quick quote
+Quote Post
post Nov 9 2023, 13:50:28
Post #3

_ - = # Thrashogolic # = - _ ... а давайте поржём все вместе
**************
Group: Металариец
Posts: 22,431
Releases: 4444
From: 404
On Forums: 13 years 11 months
Thanks: 29143 time(s)
Ukraine


*Country: Ireland (IMG:https://metalarea.org/forum/style_images/flags/Ireland.png)

Физиономия персоны на обложке отчего-то напоминает черты лица Оззи.
Совпадение?..


Thanks:
Go to the top of the page
  Insert nick Quick quote
+Quote Post
post Nov 10 2023, 11:49:08
Post #4

? ? ? ? ? ? ?
********
Group: Металариец
Posts: 833
Releases: 25
On Forums: 17 years 3 months
Thanks: 636 time(s)
Russian Federation


ЦИТАТА(Genuine Thrashiac @ Nov 9 2023, 15:50:28) *
*Country: Ireland https://metalarea.org/forum/style_images/flags/Ireland.png

Физиономия персоны на обложке отчего-то напоминает черты лица Оззи.
Совпадение?..

Если к образу добавить Элиса Купера и Шрека, то вполне. (IMG:style_emoticons/default/1488.gif)


Go to the top of the page
  Insert nick Quick quote
+Quote Post
post Nov 11 2023, 21:43:01
Post #5

Добрейшей души Мегаманьяк
**************
Group: Металариец
Posts: 2,348
Releases: 0
From: Bashkortostan, Таптыҡ
On Forums: 16 years 3 months
Thanks: 1124 time(s)
Russian Federation


ЦИТАТА(Genuine Thrashiac @ Nov 9 2023, 15:50:28) *
Физиономия персоны на обложке отчего-то напоминает черты лица Оззи.
Совпадение?..

Не, Graham Humphreys изображал Ozzy идентично
Go to the top of the page
  Insert nick Quick quote
+Quote Post
post Dec 30 2023, 18:34:47
Post #6

Group: Дух
Posts: 4
Releases: 0
From: Москва
On Forums: 7 years 3 weeks
Thanks: 0 time(s)
Russian Federation


Ссылки не рабочие
Go to the top of the page
  Insert nick Quick quote
+Quote Post
post Dec 30 2023, 19:32:24
Post #7

Правь статус, ####!111
**************
Group: Металариец
Posts: 3,463
Releases: 0
On Forums: 9 years 3 weeks
Thanks: 5231 time(s)
Russian Federation


320
Register


Thanks:
Go to the top of the page
  Insert nick Quick quote
+Quote Post
post Feb 14 2024, 02:53:18
Post #8

0%Tolerance
**************
Group: Металариец
Posts: 2,987
Releases: 0
On Forums: 11 years 8 months
Thanks: 567 time(s)
Unknown


Гривобесный, плясовой трэш. Вокал по старой школе, жидковат конечно, но привыкаешь к нему при прослушивании - добротная инструментальная составляющая компенсирует сполна. Да, в закрывашке соло на саксофоне явилось полной неожиданностью.
Go to the top of the page
  Insert nick Quick quote
+Quote Post

Reply to this topicStart new topic
1 User(s) are reading this topic (1 Guests and 0 Anonymous Users)
0 Members:

 



- Lo-Fi Version Support form
Copyrights and abuse reports form
Time is now: 26th May 2024 - 09:36:48