Welcome Guest ( Log In | Register )

> Diviner - Avaton (2023), Heavy Metal (D4)
post Nov 9 2023, 12:51:25
Post #1

Serial Uploader
Group Icon
Group: V.I.P
Posts: 42,048
Releases: 40118
From: Lithuania
On Forums: 15 years 8 months
Thanks: 511355 time(s)
Lithuania


(IMG:https://metalarea.org/images/audiocovers/2023_Nov/acov_tid388483_thumb.jpg)

*Artist: Diviner
*Album: Avaton
*Year: 2023
*Genre: Heavy Metal
*Country: Greece (IMG:https://metalarea.org/forum/style_images/flags/Greece.png)
*Format: mp3@CBR320kbps
*Size: 122MB

Tracklist:
1. Avaton 01:21
2. Mountains High 05:35
3. Dancing In The Fire 05:00
4. Cyberwar 04:02
5. Waste No Time 04:22
6. Nemecic 05:09
7. Hope Will Rise 04:39
8. Dominator 04:56
9. Hall Of The Brave 08:06
10. The Battle Of Marathon 08:00
11. Dead New World (Bonus Track) 04:57
******************************
Total playing time: 56:07



(IMG:https://metalarea.org/images/youtube.png)

Technical info
(IMG:https://metalarea.org/images/spectrogram/2023_Nov/a3c5a2cd3e868ef2183764a9dd57430e.png)
Input File: 02 - Mountains High.mp3
Channels : 2
Sample Rate : 44100
Precision : 16-bit
Duration : 00:05:35.09 = 14777645 samples = 25132 CDDA sectors
File Size : 13.9M
Bit Rate : 333k
Sample Encoding: MPEG audio (layer I, II or III)
Comments :
Title=Mountains High
Artist=Diviner
Album=Avaton
Tracknumber=2/10
Year=2023
Discnumber=1/1



Register


Go to the top of the page
  Insert nick Quick quote
+Quote Post
 
Start new topic
Replies (1 - 2)
post Nov 10 2023, 12:06:22
Post #2

Правь статус, ####!111
**************
Group: Металариец
Posts: 6,135
Releases: 0
On Forums: 5 years 8 months
Thanks: 19602 time(s)
Russian Federation


120 mb/320 kbps
Register


Thanks:
(2) Druidir, wreak,
Go to the top of the page
  Insert nick Quick quote
+Quote Post
post Nov 11 2023, 19:35:47
Post #3

MDM-Thrash Metal
**************
Group: Металариец
Posts: 12,269
Releases: 1716
From: Одесса
On Forums: 16 years 6 months
Thanks: 39952 time(s)
Ukraine


Первые два альбома греков были очень добротными. Надеюсь новое творение не разочарует.
Go to the top of the page
  Insert nick Quick quote
+Quote Post

Reply to this topicStart new topic
2 User(s) are reading this topic (2 Guests and 0 Anonymous Users)
0 Members:

 



- Lo-Fi Version Support form
Copyrights and abuse reports form
Time is now: 3rd March 2024 - 07:17:54