Welcome Guest ( Log In | Register )

> Shock Wave - Against All Odds (2023), Thrash Metal
post Nov 14 2023, 19:24:36
Post #1

Правь статус, ####!111
**************
Group: Металариец
Posts: 35,117
Releases: 26118
From: Г.Харьков
On Forums: 11 years 9 months
Thanks: 562125 time(s)
Ukraine


(IMG:https://metalarea.org/images/audiocovers/2023_Nov/acov_tid388669_thumb.jpg)

*Artist: Shock Wave
*Album: Against All Odds
*Year: 2023
*Genre: Thrash Metal
*Country: Spain (IMG:https://metalarea.org/forum/style_images/flags/Spain.png)
*Format: mp3@CBR320kbps
*Size: 90MB

Tracklist:
1. Pyrogenesis
2. Choose The Piercing Word
3. Magnificent Ridicule
4. Dangerously Ignorant
5. Demon Crusher
6. No Years Of Dk
7. Soft Ultraviolence
8. Steamroller Stampede
9. The Call Of Orion
10. Strike Of The Fools
******************************
Total playing time: 35:40



Extended info
Insekkton Guitars
See also: FireSword, ex-Inferitvm, ex-Crustacean, ex-Virus
Toni Coronado Bass (2021-present)
Edu Turco Vocals (2021-present)
See also: In War, Turkho, ex-Cerosity


Technical info
(IMG:https://metalarea.org/images/spectrogram/2023_Nov/50908031c612b6fa069a15a9fc59baef.png)
Input File: 09 - The Call Of Orion.mp3
Channels : 2
Sample Rate : 44100
Precision : 16-bit
Duration : 00:04:12.07 = 11116375 samples = 18905.4 CDDA sectors
File Size : 10.1M
Bit Rate : 320k
Sample Encoding: MPEG audio (layer I, II or III)
Comments :
Title=The Call Of Orion
Artist=Shock Wave
Album=Against All Odds
Tracknumber=9
Year=2023



Register


Go to the top of the page
  Insert nick Quick quote
+Quote Post
 
Start new topic
Replies (1 - 2)
post Nov 20 2023, 19:44:53
Post #2

Три Литра
***
Group: Завсегдатай
Posts: 262
Releases: 0
On Forums: 12 years 9 months
Thanks: 68 time(s)
Lithuania


Че за...где барабанщик ? (IMG:style_emoticons/default/22.gif)
Go to the top of the page
  Insert nick Quick quote
+Quote Post
post Nov 20 2023, 22:25:37
Post #3

Правь статус, ####!111
**************
Group: Металариец
Posts: 2,393
Releases: 0
On Forums: 15 years 4 days
Thanks: 974 time(s)
Antarctica


ЦИТАТА(Oldskulthrasher @ 20th November 2023 - 20:44:53) *
Че за...где барабанщик ?

На 0:22
Go to the top of the page
  Insert nick Quick quote
+Quote Post

Reply to this topicStart new topic
1 User(s) are reading this topic (1 Guests and 0 Anonymous Users)
0 Members:

 



- Lo-Fi Version Support form
Copyrights and abuse reports form
Time is now: 3rd March 2024 - 01:23:24