Welcome Guest ( Log In | Register )

 
Reply to this topicStart new topic
> Panzerwar - Echos Of The Undead [ep] (2023), Black Metal (D13)
post Nov 18 2023, 16:19:30
Post #1

Правь статус, ####!111
**************
Group: Металариец
Posts: 8,274
Releases: 6528
On Forums: 13 years 3 months
Thanks: 114202 time(s)
Italy


(IMG:https://metalarea.org/images/audiocovers/2023_Nov/acov_tid388863_thumb.jpg)

*Artist: Panzerwar
*Album: Echos Of The Undead [ep]
*Year: 2023
*Genre: Black Metal
*Country: Norway (IMG:https://metalarea.org/forum/style_images/flags/Norway.png)
*Format: mp3@CBR320kbps
*Size: 56MB

Tracklist:
1.Hymns of Malice 03:39
2.The Undead Call 03:23
3.Blood & Dust 03:16
4.Reflections of Dehumanization 02:38
5.Undying Hatred 04:14
6.Left for Death 03:05
7.Frail Existence 03:56
******************************
Total playing time: 24:11



Extended info
1-4 remastered songs from the 2020 split with Alghol
5-7 bonus live tracks


Technical info
(IMG:https://metalarea.org/images/spectrogram/2023_Nov/6956da63a559215d8125479396e4a52b.png)
Input File: 2.The Undead Call (Remastered Edition).mp3
Channels : 2
Sample Rate : 44100
Precision : 16-bit
Duration : 00:03:23.09 = 8956269 samples = 15231.8 CDDA sectors
File Size : 8.34M
Bit Rate : 328k
Sample Encoding: MPEG audio (layer I, II or III)
Comments :
Title=The Undead Call (Remastered Edition)
Artist=Panzerwar
Album=Echos of the Undead
Tracknumber=2/7
Year=2023
Discnumber=1/1



Register


Go to the top of the page
  Insert nick Quick quote
+Quote Post

Reply to this topicStart new topic
1 User(s) are reading this topic (1 Guests and 0 Anonymous Users)
0 Members:

 



- Lo-Fi Version Support form
Copyrights and abuse reports form
Time is now: 29th February 2024 - 03:43:45