Welcome Guest ( Log In | Register )

 
Reply to this topicStart new topic
> Panzerwar - Eonic Sleep [demo] (2023), Black Metal (D13)
post Nov 18 2023, 16:26:35
Post #1

Правь статус, ####!111
**************
Group: Металариец
Posts: 8,684
Releases: 6931
On Forums: 13 years 5 months
Thanks: 121747 time(s)
Italy


(IMG:https://metalarea.org/images/audiocovers/2023_Nov/acov_tid388864_thumb.jpg)

*Artist: Panzerwar
*Album: Eonic Sleep [demo]
*Year: 2023
*Genre: Black Metal
*Country: Norway (IMG:https://metalarea.org/forum/style_images/flags/Norway.png)
*Format: mp3@CBR320kbps
*Size: 68MB

Tracklist:
1.Raised Hammers/Smashed Crosses 03:58
2.Circle Of Stone 04:18
3.Frozen Fires 03:51
4.Agonizing Return To Reality 04:24
5.Lingering Torment (Goatsword Sessions) 03:24
6.Beyond Infernal Suffering (Goatsword Sessions) 03:03
7.Eonic Sleep (Goatsword Sessions) 05:19
******************************
Total playing time: 28:17



Technical info
(IMG:https://metalarea.org/images/spectrogram/2023_Nov/d8470adbcf7d6a6d914ae8a61aec6b8c.png)
Input File: 3.Frozen Fires.mp3
Channels : 2
Sample Rate : 44100
Precision : 16-bit
Duration : 00:03:51.59 = 10213163 samples = 17369.3 CDDA sectors
File Size : 9.83M
Bit Rate : 340k
Sample Encoding: MPEG audio (layer I, II or III)
Comments :
Title=Frozen Fires
Artist=Panzerwar
Album=Eonic Sleep
Tracknumber=3
Year=2023
Discnumber=1/1



Register


Go to the top of the page
  Insert nick Quick quote
+Quote Post

Reply to this topicStart new topic
1 User(s) are reading this topic (1 Guests and 0 Anonymous Users)
0 Members:

 



- Lo-Fi Version Support form
Copyrights and abuse reports form
Time is now: 22nd April 2024 - 03:08:41