Welcome Guest ( Log In | Register )

Объявления

* gmail.com упорно продолжает считать почту с нас "unsolicited" и отбивает в том числе и письма активации, поэтому просьба использовать альтернативные почтовые ящики.
------------
* gmail.com continues reject all mail from us as "unsolicited" (activation mails too) therefore please use alternate mail servers.

> И неформату есть предел.

Рэп/хип-хоп/шансон/поп удаляются. Для них есть свои порталы.

> Fit For A King - The Hell We Create (2022), Metalcore
post Nov 18 2023, 17:12:38
Post #1

Правь статус, ####!111
**************
Group: Металариец
Posts: 4,841
Releases: 29
From: Holland
On Forums: 17 years 10 months
Thanks: 1942 time(s)
Netherlands


(IMG:https://metalarea.org/images/audiocovers/2023_Nov/acov_tid388866_thumb.jpg)

*Artist: Fit For A King
*Album: The Hell We Create
*Year: 2022
*Genre: Metalcore
*Country: United States (IMG:https://metalarea.org/forum/style_images/flags/United%20States.png)
*Format: mp3@CBR320kbps
*Size: 91MB

Tracklist:
1. The Hell We Create 4:14
2. End (The Other Side) 3:50
3. Falling Through the Sky 4:21
4. Sink Below 3:08
5. Reaper 3:19
6. Times Like This (featuring Jonathan Vigil of The Ghost Inside) 4:09
7. Eyes Roll Back 3:29
8. Fracture 3:23
9. Reaching Out 4:21
10. What You Left Behind 4:04
******************************
Total playing time: 38:18

(IMG:https://metalarea.org/images/youtube.png)
(IMG:https://metalarea.org/images/youtube.png)

Extended info
Стянуто с сети


Technical info
(IMG:https://metalarea.org/images/spectrogram/2023_Nov/7bc3da0b7779de2f4af7e6a919d25d8f.png)
Input File: 04 - Sink Below.mp3
Channels : 2
Sample Rate : 44100
Precision : 16-bit
Duration : 00:03:08.00 = 8290800 samples = 14100 CDDA sectors
File Size : 7.79M
Bit Rate : 332k
Sample Encoding: MPEG audio (layer I, II or III)
Comments :
Title=Sink Below
Artist=Fit For A King
Album=The Hell We Create
Tracknumber=4
Year=2022-10-28
Genre=Metalcore
Discnumber=1



Register


Thanks:
(3) gwar, Wail, ZamanFu,
Go to the top of the page
  Insert nick Quick quote
+Quote Post
 
Start new topic
Replies (1 - 1)
post Nov 27 2023, 16:37:41
Post #2

Правь статус, ####!111
**************
Group: Металариец
Posts: 4,841
Releases: 29
From: Holland
On Forums: 17 years 10 months
Thanks: 1942 time(s)
Netherlands


Отличный альбом, который явно зайдет фанатам совеременного металкора. Та же Falling Through the Sky так вообще чуть ли не архитектс, остальные песни можно местами сравнить с BMTH, Bad Omens и т.д.

Команда пытается ворваться в высшую лигу жанра, и на самом деле умеет сочинять хороший материал, недурно записывать, с хорошим продакшном. Увы, группа собирает просто на порядки меньшие площадки по сравнению с упомянутыми коллегами по цеху. Вызвано это тем, что в живых выступлениях не хватает огонька, увы. Ребятки растут, но пока не настолько, чтобы сравниться с мэтрами жанра.
Go to the top of the page
  Insert nick Quick quote
+Quote Post

Reply to this topicStart new topic
2 User(s) are reading this topic (2 Guests and 0 Anonymous Users)
0 Members:

 



- Lo-Fi Version Support form
Copyrights and abuse reports form
Time is now: 28th May 2024 - 01:20:32