Welcome Guest ( Log In | Register )

> Правила / Rules

Тут только для чтения лежат низкобитрейтные (<192kbps) релизы, для которых есть аналоги в высокобитрейтных форумах.

Here goes (and stand in read only mode) low bitrate releases (<192kbps) which were already replaced by high bitrate releases in corresponding forums.

> Celtefog - Δ​έ​λ​τ​α (2023), Pagan Black Metal (D)
post Nov 19 2023, 11:52:25
Post #1

Правь статус, ####!111
**************
Group: Металариец
Posts: 3,771
Releases: 2458
From: Greece
On Forums: 16 years 4 months
Thanks: 25856 time(s)
Greece


(IMG:https://metalarea.org/images/audiocovers/2023_Nov/acov_tid388887_thumb.jpg)

*Artist: Celtefog
*Album: Δ​έ​λ​τ​α
*Year: 2023
*Genre: Pagan Black Metal
*Country: Greece (IMG:https://metalarea.org/forum/style_images/flags/Greece.png)
*Format: mp3@CBR320kbps
*Size: 99MB

Tracklist:
1. A Celt in the Fog 08:23
2. Gods of Delta 09:28
3. Winter Again 09:01
4. Valfar, ein Windir 09:29
5. Μνημες 07:57
******************************
Total playing time: 44:18



(IMG:https://metalarea.org/images/youtube.png)

Preview 5

Technical info
(IMG:https://metalarea.org/images/spectrogram/2023_Nov/4057901b351252020bbc47f81dc72839.png)
Input File: 2.Gods Of Delta.mp3
Channels : 2
Sample Rate : 44100
Precision : 16-bit
Duration : 00:09:29.06 = 25095722 samples = 42679.8 CDDA sectors
File Size : 22.8M
Bit Rate : 320k
Sample Encoding: MPEG audio (layer I, II or III)
Comments :
Artist=Celtefog
Year=0
Genre=12



Register


Go to the top of the page
  Insert nick Quick quote
+Quote Post
 
Start new topic
Replies (1 - 3)
post Nov 19 2023, 12:55:57
Post #2

Ёлд ХеллоВяйне
Group Icon
Group: V.I.P
Posts: 34,580
Releases: 143
From: Питер
On Forums: 17 years 1 month
Thanks: 21759 time(s)
Russian Federation


Люто реквестирую 320. Я б купил, но скакать с бубном неохота.


Thanks:
(1) nemx,
Go to the top of the page
  Insert nick Quick quote
+Quote Post
post Nov 21 2023, 07:52:03
Post #3

Литр
*
Group: Подсевший
Posts: 97
Releases: 2
On Forums: 11 years 6 days
Thanks: 31 time(s)
Norfolk Island


Залейте лося, если есть


Thanks:
(1) nemx,
Go to the top of the page
  Insert nick Quick quote
+Quote Post
post Nov 23 2023, 05:02:58
Post #4
BAN
Banned till
Dec 23 2023, 17:56:05



Да, такое в лосЯХ нужно слушать. Отличная превосходная работа! Не помню предыдущие альбомы (надо переслушать) - этот вышак и топчик и тэ.пэ. Мелодии в открывашке в первую очередь, в третьей теме и в остальных тоже - липнут к ушам. Паган выражается в музыке очень сильно на минималках, в текстах скорее всего более выражается по всей видимости, в чём я конечно тоже сомневаюсь. Атмосферный блэк дум ближе всего подходит. На репит и в копилку.
Go to the top of the page
  Insert nick Quick quote
+Quote Post

Причина закрытия (RADeus 24-11-2023): Celtefog - Δ​έ​λ​τ​α (2023)
Closed TopicStart new topic
2 User(s) are reading this topic (2 Guests and 0 Anonymous Users)
0 Members:

 



- Lo-Fi Version Support form
Copyrights and abuse reports form
Time is now: 3rd December 2023 - 04:55:58