Welcome Guest ( Log In | Register )

 
Reply to this topicStart new topic
> Wicked Maraya - Chapters [ep] (2023), Progressive Heavy/Power Metal
post Nov 20 2023, 03:00:01
Post #1

Правь статус, ####!111
**************
Group: Металариец
Posts: 8,274
Releases: 6528
On Forums: 13 years 3 months
Thanks: 114202 time(s)
Italy


(IMG:https://metalarea.org/images/audiocovers/2023_Nov/acov_tid388903_thumb.jpg)

*Artist: Wicked Maraya
*Album: Chapters [ep]
*Year: 2023
*Genre: Progressive Heavy/Power Metal
*Country: United States (IMG:https://metalarea.org/forum/style_images/flags/United%20States.png)
*Format: mp3@CBR320kbps
*Size: 46MB

Tracklist:
1.Chapter I 03:50
2.Chapter II 04:05
3.Chapter III 04:00
4.Chapter IV 04:14
5.Chapter V 03:27
******************************
Total playing time: 19:36

(IMG:https://metalarea.org/images/youtube.png)

Technical info
(IMG:https://metalarea.org/images/spectrogram/2023_Nov/f6f39154628b8eb07ec541ec3e067113.png)
Input File: 1.Chapter I.mp3
Channels : 2
Sample Rate : 44100
Precision : 16-bit
Duration : 00:03:50.76 = 10176296 samples = 17306.6 CDDA sectors
File Size : 9.51M
Bit Rate : 330k
Sample Encoding: MPEG audio (layer I, II or III)
Comments :
Title=Chapter I
Artist=Wicked Maraya
Album=Chapters
Tracknumber=1/5
Year=2023
Discnumber=1/1



Register


Go to the top of the page
  Insert nick Quick quote
+Quote Post

Reply to this topicStart new topic
2 User(s) are reading this topic (2 Guests and 0 Anonymous Users)
0 Members:

 



- Lo-Fi Version Support form
Copyrights and abuse reports form
Time is now: 29th February 2024 - 03:00:51