Welcome Guest ( Log In | Register )

 
Reply to this topicStart new topic
> Akloleh - Golem (2023), Black Metal
post Nov 20 2023, 03:58:48
Post #1

Правь статус, ####!111
**************
Group: Металариец
Posts: 8,274
Releases: 6528
On Forums: 13 years 3 months
Thanks: 114202 time(s)
Italy


(IMG:https://metalarea.org/images/audiocovers/2023_Nov/acov_tid388904_thumb.jpg)

*Artist: Akloleh
*Album: Golem
*Year: 2023
*Genre: Black Metal
*Country: United States (IMG:https://metalarea.org/forum/style_images/flags/United%20States.png)
*Format: mp3@CBR320kbps
*Size: 114MB

Tracklist:
1.May HaShem Avenge Their Blood 13:14
2.The Twelve Constellations 08:26
3.Our Supplication 03:12
4.Destroying Angel 13:54
5.Truth in Death 10:54
******************************
Total playing time: 49:40



Technical info
(IMG:https://metalarea.org/images/spectrogram/2023_Nov/ef35c0ac6f657af1d1ec9b79fd32cdec.png)
Input File: 2.The Twelve Constellations.mp3
Channels : 2
Sample Rate : 44100
Precision : 16-bit
Duration : 00:08:26.68 = 22344412 samples = 38000.7 CDDA sectors
File Size : 20.4M
Bit Rate : 322k
Sample Encoding: MPEG audio (layer I, II or III)
Comments :
Title=The Twelve Constellations
Artist=Akloleh
Album=Golem
Tracknumber=2/5
Year=2023
Discnumber=1/1



Register


Go to the top of the page
  Insert nick Quick quote
+Quote Post

Reply to this topicStart new topic
1 User(s) are reading this topic (1 Guests and 0 Anonymous Users)
0 Members:

 



- Lo-Fi Version Support form
Copyrights and abuse reports form
Time is now: 29th February 2024 - 03:03:38