Welcome Guest ( Log In | Register )

> Virulent Specter - Satanic Territorial Moloch (2023), Raw Black Metal (D6)
post Nov 20 2023, 13:07:04
Post #1

𝕻𝕬𝕹𝕬𝕮𝕰𝕬
**********
Group: Металариец
Posts: 1,242
Releases: 746
On Forums: 11 years 10 months
Thanks: 16047 time(s)
Unknown


(IMG:https://metalarea.org/images/audiocovers/2023_Nov/acov_tid388914_thumb.jpg)

*Artist: Virulent Specter
*Album: Satanic Territorial Moloch
*Year: 2023
*Genre: Raw Black Metal
*Country: United States (IMG:https://metalarea.org/forum/style_images/flags/United%20States.png)
*Format: mp3@CBR320kbps
*Size: 98MB

Tracklist:
1. Usurping The Body 03:49
2. Billowing Seed, Blackened Orifice 05:53
3. Master Of Innumerable Forms 05:07
4. Seep Of Dead Regions I 02:01
5. Bloodstained Walls And Floorboards 04:38
6. Satanic Territorial Moloch 02:49
7. Reeking Depths Of Night 05:05
8. Seep Of Dead Regions II 01:50
9. ISEM 07:56
10. Perverse Invokations Of The Black Grimoire 04:52
******************************
Total playing time: 44:00




Technical info
(IMG:https://metalarea.org/images/spectrogram/2023_Nov/66a15931fb84ac0cb29ce2212fdc11e7.png)
Input File: 01 - Usurping The Body.mp3
Channels : 2
Sample Rate : 44100
Precision : 16-bit
Duration : 00:03:49.94 = 10140134 samples = 17245.1 CDDA sectors
File Size : 9.19M
Bit Rate : 320k
Sample Encoding: MPEG audio (layer I, II or III)
Comments :
Title=Usurping the Body
Artist=Virulent Specter
Album=Satanic Territorial Moloch
Tracknumber=1
Year=2023
Genre=Raw Black Metal



Register


Go to the top of the page
  Insert nick Quick quote
+Quote Post
 
Start new topic
Replies (1 - 1)
post Nov 20 2023, 21:30:52
Post #2

𝕻𝕬𝕹𝕬𝕮𝕰𝕬
**********
Group: Металариец
Posts: 1,242
Releases: 746
On Forums: 11 years 10 months
Thanks: 16047 time(s)
Unknown


FLAC 291MB
Register




Go to the top of the page
  Insert nick Quick quote
+Quote Post

Reply to this topicStart new topic
1 User(s) are reading this topic (1 Guests and 0 Anonymous Users)
0 Members:

 



- Lo-Fi Version Support form
Copyrights and abuse reports form
Time is now: 22nd April 2024 - 03:32:09