Welcome Guest ( Log In | Register )

 
Reply to this topicStart new topic
> Hringboga - Flesh Is Weak [demo] (2023), Raw Black Metal
post Nov 20 2023, 13:51:36
Post #1

Правь статус, ####!111
**************
Group: Металариец
Posts: 2,355
Releases: 373
From: Bretagne
On Forums: 15 years 9 months
Thanks: 4655 time(s)
France


(IMG:https://metalarea.org/images/audiocovers/2023_Nov/acov_tid388915_thumb.jpg)

*Artist: Hringboga
*Album: Flesh Is Weak [demo]
*Year: 2023
*Genre: Raw Black Metal
*Country: United States (IMG:https://metalarea.org/forum/style_images/flags/United%20States.png)
*Format: mp3@CBR320kbps
*Size: 44MB

Tracklist:
1. Flesh Is Weak 06:06
2. Soul Wrought of Iron 01:42
3. Deep in the Devil's Den (Samuel) 04:12
4. The Impure Bog (Free) 06:58
******************************
Total playing time: 18:58

(IMG:https://metalarea.org/images/youtube.png)


Technical info
(IMG:https://metalarea.org/images/spectrogram/2023_Nov/001aac9989108804630cfe2c53c8c484.png)
Input File: Hringboga - Flesh Is Weak - 02 Soul Wrought of Iron.mp3
Channels : 2
Sample Rate : 44100
Precision : 16-bit
Duration : 00:01:42.07 = 4501111 samples = 7654.95 CDDA sectors
File Size : 4.23M
Bit Rate : 331k
Sample Encoding: MPEG audio (layer I, II or III)
Comments :
Title=Soul Wrought of Iron
Artist=Hringboga
Album=Flesh Is Weak
Tracknumber=2
Year=2023



Register


Go to the top of the page
  Insert nick Quick quote
+Quote Post

Reply to this topicStart new topic
2 User(s) are reading this topic (2 Guests and 0 Anonymous Users)
0 Members:

 



- Lo-Fi Version Support form
Copyrights and abuse reports form
Time is now: 29th February 2024 - 03:13:40