Welcome Guest ( Log In | Register )

 
Reply to this topicStart new topic
> Bleak Halls - Bleak Halls [demo] (2023), Black Metal
post Nov 20 2023, 18:10:30
Post #1

Правь статус, ####!111
**************
Group: Металариец
Posts: 7,450
Releases: 6820
From: Одесса
On Forums: 15 years 10 months
Thanks: 79303 time(s)
Ukraine


(IMG:https://metalarea.org/images/audiocovers/2023_Nov/acov_tid388924_thumb.jpg)

*Artist: Bleak Halls
*Album: Bleak Halls [demo]
*Year: 2023
*Genre: Black Metal
*Country: United States (IMG:https://metalarea.org/forum/style_images/flags/United%20States.png)
*Format: mp3@CBR320kbps
*Size: 35MB

Tracklist:
1. Bleak Halls 03:47
2. Anthropogenic 04:56
3. Sadist 05:38
******************************
Total playing time: 14:21



Technical info
(IMG:https://metalarea.org/images/spectrogram/2023_Nov/d800d9a8f439297fdf4c1daff3a0e54e.png)
Input File: 02. Anthropogenic.mp3
Channels : 2
Sample Rate : 44100
Precision : 16-bit
Duration : 00:04:56.14 = 13059906 samples = 22210.7 CDDA sectors
File Size : 11.9M
Bit Rate : 322k
Sample Encoding: MPEG audio (layer I, II or III)
Comments :
Title=Anthropogenic
Artist=Bleak Halls
Album=Bleak Halls (Demo)
Tracknumber=2
Year=2023
Genre=138



Register


Go to the top of the page
  Insert nick Quick quote
+Quote Post

Reply to this topicStart new topic
1 User(s) are reading this topic (1 Guests and 0 Anonymous Users)
0 Members:

 



- Lo-Fi Version Support form
Copyrights and abuse reports form
Time is now: 18th April 2024 - 00:05:07