Welcome Guest ( Log In | Register )

> Releases Upload / Добавление релизов

Добавить релиз тут / Click here to add release
Рекомендованные обменники / Recommended file shares

> Semprah - Infernal Claws (2023), Melodic Death Metal
post Nov 20 2023, 18:41:48
Post #1

Правь статус, ####!111
**************
Group: Металариец
Posts: 34,359
Releases: 25509
From: Г.Харьков
On Forums: 11 years 6 months
Thanks: 545483 time(s)
Ukraine


(IMG:https://metalarea.org/images/audiocovers/2023_Nov/acov_tid388926_thumb.jpg)

*Artist: Semprah
*Album: Infernal Claws
*Year: 2023
*Genre: Melodic Death Metal
*Country: Poland (IMG:https://metalarea.org/forum/style_images/flags/Poland.png)
*Format: mp3@CBR320kbps
*Size: 66MB

Tracklist:
1. Infernal Claws 01:12
2. Labirynt demonów 03:37
3. Dywizja śmierci 03:45
4. Jeździec apokalipsy 03:25
5. Story of Salem 05:01
6. Edge of the Universe 04:01
7. Red Moon 04:29
8. Pokój 213 03:16
******************************
Total playing time: 28:46




Extended info
Patryk Pruchnicki Bass
Mikołaj "Krampus" Pruchnicki Guitars
Bartosz Sikora Guitars
Joanna ''Pandora'' Surzyn Vocals
Kuba Łobodas Drums (2022-present)
See also: ex-Consumer, ex-Jezebel, ex-Raven's Night


Technical info
(IMG:https://metalarea.org/images/spectrogram/2023_Nov/b20143cc77eaf44dbf99368a2f3c3053.png)
Input File: 07 - Red Moon.mp3
Channels : 2
Sample Rate : 44100
Precision : 16-bit
Duration : 00:04:29.08 = 11866384 samples = 20180.9 CDDA sectors
File Size : 10.8M
Bit Rate : 320k
Sample Encoding: MPEG audio (layer I, II or III)
Comments :
Title=Red Moon
Artist=Semprah
Album=Infernal Claws
Tracknumber=7
Year=2023



Register


Go to the top of the page
  Insert nick Quick quote
+Quote Post
 
Start new topic
Replies (1 - 1)
post Nov 23 2023, 08:57:51
Post #2

MDM-Thrash Metal
**************
Group: Металариец
Posts: 12,112
Releases: 1689
From: Одесса
On Forums: 16 years 3 months
Thanks: 39504 time(s)
Ukraine


Go to the top of the page
  Insert nick Quick quote
+Quote Post

Reply to this topicStart new topic
2 User(s) are reading this topic (2 Guests and 0 Anonymous Users)
0 Members:

 



- Lo-Fi Version Support form
Copyrights and abuse reports form
Time is now: 3rd December 2023 - 06:31:37