Welcome Guest ( Log In | Register )

 
Reply to this topicStart new topic
> Wretched Kingdom - Wretched Kingdom (2023), Doom/Heavy Metal/Hard Rock
post Nov 20 2023, 18:50:02
Post #1

Правь статус, ####!111
**************
Group: Металариец
Posts: 35,625
Releases: 26518
From: Г.Харьков
On Forums: 11 years 11 months
Thanks: 573443 time(s)
Ukraine


(IMG:https://metalarea.org/images/audiocovers/2023_Nov/acov_tid388927_thumb.jpg)

*Artist: Wretched Kingdom
*Album: Wretched Kingdom
*Year: 2023
*Genre: Doom/Heavy Metal/Hard Rock
*Country: United States (IMG:https://metalarea.org/forum/style_images/flags/United%20States.png)
*Format: mp3@CBR320kbps
*Size: 63MB

Tracklist:
1. Torn And Frayed 03:42
2. Dreamcrusher 04:31
3. You Can't Save Me 04:54
4. Smoke And Mirrors 04:02
5. Too Close To The Sun 04:30
6. Deviation 06:06
******************************
Total playing time: 27:45




Extended info
Alfred Gonzales Unknown
Jason C. Unknown
Sylvester L. Unknown
Christopher Boehm Unknown


Technical info
(IMG:https://metalarea.org/images/spectrogram/2023_Nov/ed3e614f8e0429edef28840eacbb835a.png)
Input File: 05 - Too Close to the Sun.mp3
Channels : 2
Sample Rate : 44100
Precision : 16-bit
Duration : 00:04:28.79 = 11853683 samples = 20159.3 CDDA sectors
File Size : 10.8M
Bit Rate : 320k
Sample Encoding: MPEG audio (layer I, II or III)
Comments :
Title=Too Close to the Sun
Artist=Wretched Kingdom
Album=Wretched Kingdom
Tracknumber=5
Year=2023



Register


Go to the top of the page
  Insert nick Quick quote
+Quote Post

Reply to this topicStart new topic
1 User(s) are reading this topic (1 Guests and 0 Anonymous Users)
0 Members:

 



- Lo-Fi Version Support form
Copyrights and abuse reports form
Time is now: 22nd April 2024 - 05:02:24