Welcome Guest ( Log In | Register )

> Ritual Of Descent - Death By Toll [ep] (2023), Technical/Brutal Death Metal
post Nov 21 2023, 06:36:32
Post #1

Правь статус, ####!111
**************
Group: Металариец
Posts: 8,320
Releases: 6574
On Forums: 13 years 3 months
Thanks: 115020 time(s)
Italy


(IMG:https://metalarea.org/images/audiocovers/2023_Nov/acov_tid388932_thumb.jpg)

*Artist: Ritual Of Descent
*Album: Death By Toll [ep]
*Year: 2023
*Genre: Technical/Brutal Death Metal
*Country: United States (IMG:https://metalarea.org/forum/style_images/flags/United%20States.png)
*Format: mp3@CBR320kbps
*Size: 53MB

Tracklist:
1.Aftermath of Disease 04:53
2.Pestilence of Carnage 03:46
3.Immolation 03:55
4.Virulent 04:13
5.Scorched Earth 06:03
******************************
Total playing time: 22:50



Technical info
(IMG:https://metalarea.org/images/spectrogram/2023_Nov/0ecd7937b1ea3916a9788a72f3cfe78f.png)
Input File: 2.Pestilence of Carnage.mp3
Channels : 2
Sample Rate : 44100
Precision : 16-bit
Duration : 00:03:46.81 = 10002321 samples = 17010.8 CDDA sectors
File Size : 9.43M
Bit Rate : 333k
Sample Encoding: MPEG audio (layer I, II or III)
Comments :
Title=Pestilence of Carnage
Artist=Ritual of Descent
Album=Death By Toll
Tracknumber=2/5
Year=2023
Discnumber=1/1



Register


Go to the top of the page
  Insert nick Quick quote
+Quote Post
 
Start new topic
Replies (1 - 2)
post Nov 21 2023, 09:14:41
Post #2

brutalcesar
**************
Group: Металариец
Posts: 18,777
Releases: 77
From: Рязань
On Forums: 15 years 1 month
Thanks: 11209 time(s)
Russian Federation


дэткор


Thanks:
(1) SAPOGi,
Go to the top of the page
  Insert nick Quick quote
+Quote Post
post Jan 18 2024, 05:49:59
Post #3

i listen to black metal
**************
Group: Металариец
Posts: 4,019
Releases: 150
From: Москва
On Forums: 17 years 2 months
Thanks: 2621 time(s)
Russian Federation


чутка жира не хватает
Go to the top of the page
  Insert nick Quick quote
+Quote Post

Reply to this topicStart new topic
1 User(s) are reading this topic (1 Guests and 0 Anonymous Users)
0 Members:

 



- Lo-Fi Version Support form
Copyrights and abuse reports form
Time is now: 5th March 2024 - 12:04:18