Welcome Guest ( Log In | Register )

> И неформату есть предел.

Рэп/хип-хоп/шансон/поп удаляются. Для них есть свои порталы.

> Mater Suspiria Vision - Space Necronomicon (2023), Ambient/Experimental
post Nov 29 2023, 06:55:53
Post #1

Group: Дух
Posts: 7
Releases: 2
From: China
On Forums: 2 years 3 weeks
Thanks: 26 time(s)
Unknown


(IMG:https://metalarea.org/images/audiocovers/2023_Nov/acov_tid389311_thumb.jpg)

*Artist: Mater Suspiria Vision
*Album: Space Necronomicon
*Year: 2023
*Genre: Ambient/Experimental
*Country: Germany (IMG:https://metalarea.org/forum/style_images/flags/Germany.png)
*Format: mp3@CBR320kbps
*Size: 94MB

Tracklist:
1. Das Universum bist Du (07:54)
2. Geisterinsel im Weltall (08:16)
3. Ausserkörperliche Erfahrung / Out of Body Experience (05:05)
4. Deep Sleep / Tiefer Schlaf (19:12)
******************************
Total playing time: 40:27

Technical info
(IMG:https://metalarea.org/images/spectrogram/2023_Nov/270a6111f850565595033c74c0dc225e.png)
Input File: Mater Suspiria Vision - Space Necronomicon - The Album - 03 Ausserkörperliche Erfahrung - Out of Body Experience.mp3
Channels : 2
Sample Rate : 44100
Precision : 16-bit
Duration : 00:05:05.57 = 13475681 samples = 22917.8 CDDA sectors
File Size : 12.3M
Bit Rate : 323k
Sample Encoding: MPEG audio (layer I, II or III)
Comments :
Title=Ausserkörperliche Erfahrung / Out of Body Experience
Artist=Mater Suspiria Vision
Album=Space Necronomicon - The Album
Tracknumber=3
Year=2023



Register


Go to the top of the page
  Insert nick Quick quote
+Quote Post
 
Start new topic
Replies (1 - 1)
post Nov 30 2023, 10:30:04
Post #2

Девять Литров
*********
Group: Металариец
Posts: 947
Releases: 0
On Forums: 16 years 4 months
Thanks: 460 time(s)
Poland




Go to the top of the page
  Insert nick Quick quote
+Quote Post

Reply to this topicStart new topic
1 User(s) are reading this topic (1 Guests and 0 Anonymous Users)
0 Members:

 



- Lo-Fi Version Support form
Copyrights and abuse reports form
Time is now: 23rd February 2024 - 11:06:37