Welcome Guest ( Log In | Register )

> И неформату есть предел.

Рэп/хип-хоп/шансон/поп удаляются. Для них есть свои порталы.

 
Reply to this topicStart new topic
> American Trailways - Like The Candles On The Grave (2023) - Like The Candles On The Grave (2023), Metallic Hardcore
post Nov 29 2023, 21:21:09
Post #1

Group: Дух
Posts: 2
Releases: 0
On Forums: 3 months 3 weeks
Thanks: 2 time(s)
Germany


(IMG:https://metalarea.org/images/audiocovers/2023_Nov/acov_tid389338_thumb.jpg)

*Artist: American Trailways - Like The Candles On The Grave (2023)
*Album: Like The Candles On The Grave
*Year: 2023
*Genre: Metallic Hardcore
*Country: Germany (IMG:https://metalarea.org/forum/style_images/flags/Germany.png)
*Format: mp3@CBR320kbps
*Size: 94MB

Tracklist:
1. Depression Party 04:23
2. Candles On The Grave 03:55
3. Wolves 04:12
4. Act.II Self Control & Demise 04:00
5. King Of Nothing 02:06
6. Servants 02:18
7. Les Enfants Terribles 03:07
8. Natural Born Killers 03:57
9. Terrorizer 04:33
10. Dead.End.Rewind 07:34
******************************
Total playing time: 40:05

Extended info


Technical info
(IMG:https://metalarea.org/images/spectrogram/2023_Nov/cfc1f718d6479bdbba63ef3ef2a4ebf0.png)
Input File: 02. Candles on the Grave.mp3
Channels : 2
Sample Rate : 44100
Precision : 16-bit
Duration : 00:03:55.05 = 10365837 samples = 17629 CDDA sectors
File Size : 9.41M
Bit Rate : 320k
Sample Encoding: MPEG audio (layer I, II or III)
Comments :
Title=Candles On The Grave
Artist=American Trailways
Album=Like The Candles On The Grave
Tracknumber=2
Year=2022
Genre=17



Register


Thanks:
(1) Wail,
Go to the top of the page
  Insert nick Quick quote
+Quote Post

Reply to this topicStart new topic
1 User(s) are reading this topic (1 Guests and 0 Anonymous Users)
0 Members:

 



- Lo-Fi Version Support form
Copyrights and abuse reports form
Time is now: 5th March 2024 - 11:15:24