Welcome Guest ( Log In | Register )

Объявления

* gmail.com упорно продолжает считать почту с нас "unsolicited" и отбивает в том числе и письма активации, поэтому просьба использовать альтернативные почтовые ящики.
------------
* gmail.com continues reject all mail from us as "unsolicited" (activation mails too) therefore please use alternate mail servers.

> И неформату есть предел.

Рэп/хип-хоп/шансон/поп удаляются. Для них есть свои порталы.

> Lebowski - Pretending Life [ep] (2023), Progressive Rock (D4)
post Dec 8 2023, 08:34:29
Post #1

21st Century Schizoid Man
**************
Group: Металариец
Posts: 8,447
Releases: 317
From: 1984
On Forums: 16 years 3 weeks
Thanks: 9400 time(s)
Unknown


(IMG:https://metalarea.org/images/audiocovers/2023_Dec/acov_tid389685_thumb.jpg)

*Artist: Lebowski
*Album: Pretending Life [ep]
*Year: 2023
*Genre: Progressive Rock
*Country: Poland (IMG:https://metalarea.org/forum/style_images/flags/Poland.png)
*Format: mp3@CBR320kbps
*Size: 40MB

Tracklist:
01. Pretending Life 10:48
02. Dreams, Reality, Death 06:45
******************************
Total playing time: 17:33

(IMG:https://metalarea.org/images/youtube.png)
(IMG:https://metalarea.org/images/youtube.png)


Extended info
Marcin Łuczaj - piano, synth
Marcin Grzegorczyk - guitars, drums programming
Ryszard Łabul - bass guitar
Krzysztof Pakuła – drums
Ryūichi Sakamoto - voice (quote from the interview)
Katarzyna Dziubak - violin

Thanks to acerbus.


Technical info
(IMG:https://metalarea.org/images/spectrogram/2023_Dec/9fac8fb93d775a71d8347c40faa3a678.png)
Input File: 02. Dreams, Reality, Death.mp3
Channels : 2
Sample Rate : 44100
Precision : 16-bit
Duration : 00:06:45.92 = 17900896 samples = 30443.7 CDDA sectors
File Size : 16.3M
Bit Rate : 321k
Sample Encoding: MPEG audio (layer I, II or III)
Comments :
Title=Dreams, Reality, Death
Artist=Lebowski
Album=Pretending Life
Tracknumber=2
Year=2023
Genre=Progressive Rock



Register


Go to the top of the page
  Insert nick Quick quote
+Quote Post
 
Start new topic
Replies (1 - 1)
post Dec 15 2023, 16:46:40
Post #2

к приему виски готов
*********
Group: Металариец
Posts: 957
Releases: 3
From: Украина
On Forums: 15 years 3 months
Thanks: 565 time(s)
Ukraine


хорошо, но мало. Надеюсь будет и полноформат.


Thanks:
(1) Ghostb,
Go to the top of the page
  Insert nick Quick quote
+Quote Post

Reply to this topicStart new topic
2 User(s) are reading this topic (2 Guests and 0 Anonymous Users)
0 Members:

 



- Lo-Fi Version Support form
Copyrights and abuse reports form
Time is now: 26th May 2024 - 10:05:22