Welcome Guest ( Log In | Register )

 
Reply to this topicStart new topic
> Azaroth - Reditus Bellator [ep] (2023), Black Metal
post Dec 12 2023, 03:00:53
Post #1

Правь статус, ####!111
**************
Group: Металариец
Posts: 8,633
Releases: 6881
On Forums: 13 years 4 months
Thanks: 120724 time(s)
Italy


(IMG:https://metalarea.org/images/audiocovers/2023_Dec/acov_tid389814_thumb.jpg)

*Artist: Azaroth
*Album: Reditus Bellator [ep]
*Year: 2023
*Genre: Black Metal
*Country: Panama (IMG:https://metalarea.org/forum/style_images/flags/Panama.png)
*Format: mp3@CBR320kbps
*Size: 46MB

Tracklist:
1.Queen Of The Black Moon 04:41
2.Serenity Obscurantis 05:01
3.Reditus Bellator 04:42
4.Eternal Prophecies 05:23
******************************
Total playing time: 19:47

(IMG:https://metalarea.org/images/youtube.png)

Technical info
(IMG:https://metalarea.org/images/spectrogram/2023_Dec/50630337c85aec0e0bdfb28e40fd8dcd.png)
Input File: 1.Queen Of The Black Moon.mp3
Channels : 2
Sample Rate : 44100
Precision : 16-bit
Duration : 00:04:41.64 = 12420500 samples = 21123.3 CDDA sectors
File Size : 11.7M
Bit Rate : 331k
Sample Encoding: MPEG audio (layer I, II or III)
Comments :
Title=Queen Of The Black Moon
Artist=Azaroth
Album=Reditus Bellator
Tracknumber=1/4
Year=2023
Discnumber=1/1



Register


Go to the top of the page
  Insert nick Quick quote
+Quote Post

Reply to this topicStart new topic
1 User(s) are reading this topic (1 Guests and 0 Anonymous Users)
0 Members:

 



- Lo-Fi Version Support form
Copyrights and abuse reports form
Time is now: 14th April 2024 - 09:26:59