Welcome Guest ( Log In | Register )

Объявления

* gmail.com упорно продолжает считать почту с нас "unsolicited" и отбивает в том числе и письма активации, поэтому просьба использовать альтернативные почтовые ящики.
------------
* gmail.com continues reject all mail from us as "unsolicited" (activation mails too) therefore please use alternate mail servers.

> И неформату есть предел.

Рэп/хип-хоп/шансон/поп удаляются. Для них есть свои порталы.

> Grunt - Vieraat Aivot [live] (2023), Power Electronics/Noise (D30)
post Dec 14 2023, 20:34:42
Post #1

Пять Литров
*****
Group: Металариец
Posts: 417
Releases: 0
On Forums: 1 year 9 months
Thanks: 953 time(s)
Russian Federation


(IMG:https://metalarea.org/images/audiocovers/2023_Dec/acov_tid389915_thumb.jpg)

*Artist: Grunt
*Album: Vieraat Aivot [live]
*Year: 2023
*Genre: Power Electronics/Noise
*Country: Finland (IMG:https://metalarea.org/forum/style_images/flags/Finland.png)
*Format: mp3@CBR320kbps
*Size: 96MB

Tracklist:
1. Koneen Sisällä 3:15
2. Jokainen Teoria On Kahle 3:07
3. Human Taxidermy 2:26
4. Conquistador Memory Erasure 2:59
5. Cold Cleans Up 3:47
6. Vieraat Aivot 1:39
7. Euroopaan Hautajaiset 4:28
8. Linkolan Perintö 4:13
9. Jokainen Järjestelmä On Erehdys 6:55
10. Vieraat Huulet 4:20
11. Tuhat Kuolemaa Sekunnissa 3:57
******************************
Total playing time: 41:06

(IMG:https://metalarea.org/images/youtube.png)

Extended info
Celebrating the 30 years anniversary, Grunt performed live shows scheduled for exact month of projects formation. Shows consisted new material not heard on former albums or tapes. Studio quality recording of two shows presents Grunt works from many angles. From aggressive industrial noise / power electronics assaults to screeching scrap metal loops, from aggressive violent vocals to narrative spoken, recited pieces leaning to eerie and ritualistic atmospheres. Material of the CD was performed for private audience during late summer 2023 and two sets combined create Grunt album that has many of the known elements, but also pushing sound to formerly unheard directions.
Freak Animal Records


Technical info
(IMG:https://metalarea.org/images/spectrogram/2023_Dec/d54517f22bfbc84cf8b41a9511b12524.png)
Input File: 01 - Grunt - Konen Sisällä.mp3
Channels : 2
Sample Rate : 44100
Precision : 16-bit
Duration : 00:03:15.03 = 8600955 samples = 14627.5 CDDA sectors
File Size : 8.15M
Bit Rate : 334k
Sample Encoding: MPEG audio (layer I, II or III)
Comments :
Title=Konen Sisällä
Artist=Grunt
Album=Vieraat Aivot
Tracknumber=01
Year=2023
Genre=Power Electronics/Noise



Register


Go to the top of the page
  Insert nick Quick quote
+Quote Post
 
Start new topic
Replies (1 - 1)
post Dec 18 2023, 08:04:11
Post #2

मृत्यु
**************
Group: Металариец
Posts: 3,596
Releases: 24
On Forums: 13 years 10 months
Thanks: 2346 time(s)
Antarctica


Интересно, слушает ли Grunt Grunt? (IMG:style_emoticons/default/fear.gif)
(IMG:https://c4.wallpaperflare.com/wallpaper/12/511/652/mass-effect-grunt-mass-effect-wallpaper-preview.jpg)
Go to the top of the page
  Insert nick Quick quote
+Quote Post

Reply to this topicStart new topic
4 User(s) are reading this topic (4 Guests and 0 Anonymous Users)
0 Members:

 



- Lo-Fi Version Support form
Copyrights and abuse reports form
Time is now: 26th May 2024 - 19:41:58