Welcome Guest ( Log In | Register )

> И неформату есть предел.

Рэп/хип-хоп/шансон/поп удаляются. Для них есть свои порталы.

 
Reply to this topicStart new topic
> As You Left - Silver Chains Golden Veins (2023), Metalcore
post Dec 15 2023, 19:22:27
Post #1

Правь статус, ####!111
**************
Group: Металариец
Posts: 7,442
Releases: 6812
From: Одесса
On Forums: 15 years 10 months
Thanks: 79222 time(s)
Ukraine


(IMG:https://metalarea.org/images/audiocovers/2023_Dec/acov_tid389951_thumb.jpg)

*Artist: As You Left
*Album: Silver Chains Golden Veins
*Year: 2023
*Genre: Metalcore
*Country: Germany (IMG:https://metalarea.org/forum/style_images/flags/Germany.png)
*Format: mp3@CBR320kbps
*Size: 100MB

Tracklist:
1. Oblivion 05:41
2. Blades Turning 03:53
3. Surrender 04:05
4. Illuminate 03:42
5. Laws of the Ancient 03:23
6. March of the Sinners 04:39
7. In the Deep 03:11
8. Lost Dreams 03:30
9. Throne 03:36
10. Indifference 03:09
11. Malevolent Deceit 03:50
******************************
Total playing time: 42:39

Extended info
Line - up:

Janine Lettmann - Bass
Marlon Raven - Drums (Shadowsquare, ex-Circuit Breach)
Jasper Goldstein - Guitars
Fabian Juch - Vocals
Christopher Hellmich - Guitars



Technical info
(IMG:https://metalarea.org/images/spectrogram/2023_Dec/c30b2fc49516c679aaf6d68dce3c5a3d.png)
Input File: 04. Illuminate.mp3
Channels : 2
Sample Rate : 44100
Precision : 16-bit
Duration : 00:03:42.16 = 9797256 samples = 16662 CDDA sectors
File Size : 8.89M
Bit Rate : 320k
Sample Encoding: MPEG audio (layer I, II or III)
Comments :
Title=Illuminate
Artist=As You Left
Album=Silver Chains Golden Veins
Tracknumber=4
Year=2023
Genre=Metalcore



Register


Thanks:
(1) Wail,
Go to the top of the page
  Insert nick Quick quote
+Quote Post

Reply to this topicStart new topic
1 User(s) are reading this topic (1 Guests and 0 Anonymous Users)
0 Members:

 



- Lo-Fi Version Support form
Copyrights and abuse reports form
Time is now: 15th April 2024 - 03:36:36