Welcome Guest ( Log In | Register )

Объявления

* gmail.com упорно продолжает считать почту с нас "unsolicited" и отбивает в том числе и письма активации, поэтому просьба использовать альтернативные почтовые ящики.
------------
* gmail.com continues reject all mail from us as "unsolicited" (activation mails too) therefore please use alternate mail servers.

> И неформату есть предел.

Рэп/хип-хоп/шансон/поп удаляются. Для них есть свои порталы.

 
Reply to this topicStart new topic
> Natura Est - The Folly Of Mars (2023), Dark Ambient
post Dec 18 2023, 19:27:14
Post #1

Пять Литров
*****
Group: Металариец
Posts: 417
Releases: 0
On Forums: 1 year 9 months
Thanks: 953 time(s)
Russian Federation


(IMG:https://metalarea.org/images/audiocovers/2023_Dec/acov_tid390056_thumb.jpg)

*Artist: Natura Est
*Album: The Folly Of Mars
*Year: 2023
*Genre: Dark Ambient
*Country: International (IMG:https://metalarea.org/forum/style_images/flags/International.png)
*Format: mp3@CBR320kbps
*Size: 83MB

Tracklist:
1. Extinction Concept 05:07
2. With One Eye On The Heavens 06:41
3. The Folly Of Mars 04:40
4. We Will End Time 05:23
5. The Fallen Empire Of Man 07:26
6. Sum Et Pulvis 05:23
******************************
Total playing time: 34:40



Extended info
With The Folly of Mars, their fourth full album (and second for Cyclic Law), Tony Young and Andreas Davids explore man’s desire to conquer outer space at all cost; regardless of the more pressing issues that should be first resolved on their home planet. Billions of dollars have funded the urge of mans desire to populate the red planet and further explore its neighbouring satellites, whilst millions of people starve on their home soil. Climate change is ravaging the Earth in what is now our sixth mass extinction event; and whilst the quest for knowledge should be applauded, it has become a banner of ego for the small percentage of people who hoard the largest wealth. Over the course of six tracks, Natura Est ask the listener to contemplate the swathes of species that are dying out as our planet screams for urgent assistance; whilst the privileged few squander their riches, displaying a set of questionable morals that promote nothing but self-interest. Nature is all, all is nature; but who really is the beast?
Cyclic Law


Technical info
(IMG:https://metalarea.org/images/spectrogram/2023_Dec/c58a43b6d5db9841c56151f1c67fb348.png)
Input File: 01 - Natura Est - Extinction Concept.mp3
Channels : 2
Sample Rate : 44100
Precision : 16-bit
Duration : 00:05:07.05 = 13540817 samples = 23028.6 CDDA sectors
File Size : 12.9M
Bit Rate : 336k
Sample Encoding: MPEG audio (layer I, II or III)
Comments :
Title=Extinction Concept
Artist=Natura Est
Album=The Folly Of Mars
Tracknumber=01/06
Year=2023
Genre=Dark Ambient



Register


Go to the top of the page
  Insert nick Quick quote
+Quote Post

Reply to this topicStart new topic
2 User(s) are reading this topic (2 Guests and 0 Anonymous Users)
0 Members:

 



- Lo-Fi Version Support form
Copyrights and abuse reports form
Time is now: 26th May 2024 - 18:55:06