Welcome Guest ( Log In | Register )

Объявления

* gmail.com упорно продолжает считать почту с нас "unsolicited" и отбивает в том числе и письма активации, поэтому просьба использовать альтернативные почтовые ящики.
------------
* gmail.com continues reject all mail from us as "unsolicited" (activation mails too) therefore please use alternate mail servers.
> Visions Of Morpheus - Lost Within (2023), Progressive/Symphonic Metal
post Dec 29 2023, 00:43:19
Post #1

Правь статус, ####!111
**************
Group: Металариец
Posts: 8,958
Releases: 7194
On Forums: 13 years 6 months
Thanks: 126841 time(s)
Italy


(IMG:https://metalarea.org/images/audiocovers/2023_Dec/acov_tid390414_thumb.jpg)

*Artist: Visions Of Morpheus
*Album: Lost Within
*Year: 2023
*Genre: Progressive/Symphonic Metal
*Country: Canada (IMG:https://metalarea.org/forum/style_images/flags/Canada.png)
*Format: mp3@CBR320kbps
*Size: 147MB

Tracklist:
1.Through Fire and Flame 06:28
2.Medusa 07:24
3.Power of Seven 02:38
4.Catharsis 04:51
5.Watch the World Burn 05:02
6.Outrun the Past 05:05
7.Lost Within 07:07
8.Ghost 06:13
9.Beyond 05:13
10.Cloak of the Night 04:05
11.Eye of the Storm 07:09
******************************
Total playing time: 1:01:15



Technical info
(IMG:https://metalarea.org/images/spectrogram/2023_Dec/ebb9e08ac09485d363712879930433d3.png)
Input File: 2.Catharsis.mp3
Channels : 2
Sample Rate : 44100
Precision : 16-bit
Duration : 00:04:51.70 = 12864058 samples = 21877.6 CDDA sectors
File Size : 12.3M
Bit Rate : 337k
Sample Encoding: MPEG audio (layer I, II or III)
Comments :
Title=Catharsis
Artist=Visions of Morpheus
Album=Lost Within
Tracknumber=2/11
Year=2023
Discnumber=1/1



Register


Go to the top of the page
  Insert nick Quick quote
+Quote Post
 
Start new topic
Replies (1 - 1)
post Dec 29 2023, 18:37:26
Post #2

Восемь Литров
********
Group: Металариец
Posts: 875
Releases: 0
On Forums: 17 years 5 months
Thanks: 123 time(s)
Russian Federation


Любителям ДТ точно зайдет. По мне слишком вторично.


Thanks:
Go to the top of the page
  Insert nick Quick quote
+Quote Post

Reply to this topicStart new topic
2 User(s) are reading this topic (2 Guests and 0 Anonymous Users)
0 Members:

 



- Lo-Fi Version Support form
Copyrights and abuse reports form
Time is now: 29th May 2024 - 09:19:25