Welcome Guest ( Log In | Register )

Объявления

* gmail.com упорно продолжает считать почту с нас "unsolicited" и отбивает в том числе и письма активации, поэтому просьба использовать альтернативные почтовые ящики.
------------
* gmail.com continues reject all mail from us as "unsolicited" (activation mails too) therefore please use alternate mail servers.
 
Reply to this topicStart new topic
> DragonForce - Power Of The Saber Blade [single] (2023), Power Metal (D)
post Dec 29 2023, 11:43:58
Post #1

Правь статус, ####!111
**************
Group: Металариец
Posts: 2,760
Releases: 54
From: Nakhodka
On Forums: 13 years 11 months
Thanks: 2816 time(s)
Russian Federation


(IMG:https://metalarea.org/images/audiocovers/2023_Dec/acov_tid390431_thumb.jpg)

*Artist: DragonForce
*Album: Power Of The Saber Blade [single]
*Year: 2023
*Genre: Power Metal
*Country: United Kingdom (IMG:https://metalarea.org/forum/style_images/flags/United%20Kingdom.png)
*Format: mp3@CBR320kbps
*Size: 9MB

Tracklist:
1. Power of the Saber Blade
******************************
Total playing time: 4:03

Preview 1

Extended info
Exclusive Song for Beat Saber Game Soundtrack.


Technical info
(IMG:https://metalarea.org/images/spectrogram/2023_Dec/0ad6947570c4b48413004363286645ba.png)
Input File: 01. Power of the Saber Blade.mp3
Channels : 2
Sample Rate : 44100
Precision : 16-bit
Duration : 00:04:02.27 = 10684195 samples = 18170.4 CDDA sectors
File Size : 9.69M
Bit Rate : 320k
Sample Encoding: MPEG audio (layer I, II or III)
Comments :
Title=Power of the Saber Blade (Single)
Artist=DragonForce
Album=Power of the Saber Blade (Single)
Tracknumber=01
Year=2023
Genre=Power Metal



Register


Go to the top of the page
  Insert nick Quick quote
+Quote Post

Reply to this topicStart new topic
2 User(s) are reading this topic (2 Guests and 0 Anonymous Users)
0 Members:

 



- Lo-Fi Version Support form
Copyrights and abuse reports form
Time is now: 27th May 2024 - 23:39:20