Welcome Guest ( Log In | Register )

Объявления

* gmail.com упорно продолжает считать почту с нас "unsolicited" и отбивает в том числе и письма активации, поэтому просьба использовать альтернативные почтовые ящики.
------------
* gmail.com continues reject all mail from us as "unsolicited" (activation mails too) therefore please use alternate mail servers.
> Deconsekrated - Ascension In The Altar Of Condemned (2024), Old School Death Metal
post Jan 2 2024, 05:22:13
Post #1

Правь статус, ####!111
**************
Group: Металариец
Posts: 35,993
Releases: 26829
From: Г.Харьков
On Forums: 12 years 3 weeks
Thanks: 581860 time(s)
Ukraine


(IMG:https://metalarea.org/images/audiocovers/2024_Jan/acov_tid390586_thumb.jpg)

*Artist: Deconsekrated
*Album: Ascension In The Altar Of Condemned
*Year: 2024
*Genre: Old School Death Metal
*Country: Chile (IMG:https://metalarea.org/forum/style_images/flags/Chile.png)
*Format: mp3@CBR320kbps
*Size: 67MB

Tracklist:
1. Invocation
2. Ancestral Voice
3. Spectral Rites
4. Litany of the Blasphemous
5. Impure Glorification
6. Consumed by Emptiness
******************************
Total playing time: 28:50




Extended info
Gûl Evokator Vocals
Agorh Sculpor Guitars (2020-present)
See also: Cryptic, ex-Pewmayen
Fides Na'aash Bass (2022-present)
See also: ex-Abhorior
Necis Drums (2022-present)
See also: Invunche, ex-Kalkumakuñ


Technical info
(IMG:https://metalarea.org/images/spectrogram/2024_Jan/ef44aeaef8becd5d98ad1c3360300d8f.png)
Input File: Deconsekrated - Ascension In The Altar Of Condemned - 03 Spectral Rites.mp3
Channels : 2
Sample Rate : 44100
Precision : 16-bit
Duration : 00:05:05.02 = 13451470 samples = 22876.6 CDDA sectors
File Size : 12.3M
Bit Rate : 324k
Sample Encoding: MPEG audio (layer I, II or III)
Comments :
Title=Spectral Rites
Artist=Deconsekrated
Album=Ascension In The Altar Of Condemned
Tracknumber=3
Year=2024



Register


Go to the top of the page
  Insert nick Quick quote
+Quote Post
 
Start new topic
Replies (1 - 5)
post Jan 2 2024, 18:45:58
Post #2

Правь статус, ####!111
**************
Group: Металариец
Posts: 35,993
Releases: 26829
From: Г.Харьков
On Forums: 12 years 3 weeks
Thanks: 581860 time(s)
Ukraine


FLAC (Tracks) 199 mb
Register


Go to the top of the page
  Insert nick Quick quote
+Quote Post
post Jan 2 2024, 21:54:36
Post #3

Full-of-Hate
**************
Group: Металариец
Posts: 5,759
Releases: 0
From: Moscow
On Forums: 14 years 10 months
Thanks: 7078 time(s)
Russian Federation


Заурядный дэт с очевидным инфлюенсом Morbid Angel и Hate Eternal и с отвратительной фотошопной обложкой.
Неплохой и небезнадежный шум, являющийся по большей части балласт-контентом, изредка что-то дельно по олде проскакивает.
Скорее всего, в качестве фона на ютубе или бандкампе эта запись может скрасить тридцать минут времени, после чего будет предана вечному забвению.
Go to the top of the page
  Insert nick Quick quote
+Quote Post
post Jan 4 2024, 09:00:52
Post #4

Common dweller of hell
**************
Group: Металариец
Posts: 5,397
Releases: 12
From: Dnipro
On Forums: 15 years 10 months
Thanks: 2198 time(s)
Ukraine


ЦИТАТА(FullofHate @ Jan 2 2024, 22:54:36) *
с отвратительной фотошопной обложкой

Не могу ее назвать отвратительной (IMG:style_emoticons/default/23.gif) Видимо тебе в жизни повезло и ты реально не встречал еще отвратных обложек.


Thanks:
Go to the top of the page
  Insert nick Quick quote
+Quote Post
post Jan 4 2024, 12:48:31
Post #5

Group: Дух
Posts: 9
Releases: 0
On Forums: 4 years 3 months
Thanks: 3 time(s)
Russian Federation


ЦИТАТА(FullofHate @ Jan 2 2024, 21:54:36) *
Заурядный дэт с очевидным инфлюенсом Morbid Angel и Hate Eternal и с отвратительной фотошопной обложкой.
Неплохой и небезнадежный шум, являющийся по большей части балласт-контентом, изредка что-то дельно по олде проскакивает.
Скорее всего, в качестве фона на ютубе или бандкампе эта запись может скрасить тридцать минут времени, после чего будет предана вечному забвению.


Что касается обложки, то она вполне себе хороша и уж точно не фотошопная никаким боком.
Go to the top of the page
  Insert nick Quick quote
+Quote Post
post Jan 8 2024, 18:39:56
Post #6

Добрейшей души Мегаманьяк
**************
Group: Металариец
Posts: 2,350
Releases: 0
From: Bashkortostan, Таптыҡ
On Forums: 16 years 3 months
Thanks: 1124 time(s)
Russian Federation


ЦИТАТА(FullofHate @ Jan 2 2024, 23:54:36) *
с отвратительной фотошопной обложкой.

Когда кто то не может понять, не хочет разобраться и просветиться в живописи (да и вообще в любой сфере человеческой жизнедеятельности) - лучше не нажимать на кнопки клавиатуры - а то получаются дилетантские измышлизмы.

Ну а по музлу - вполне себе мрачный death metal из ближайших ассоциаций CRUCIAMENTUM. Оставил себе.


Thanks:
Go to the top of the page
  Insert nick Quick quote
+Quote Post

Reply to this topicStart new topic
1 User(s) are reading this topic (1 Guests and 0 Anonymous Users)
0 Members:

 



- Lo-Fi Version Support form
Copyrights and abuse reports form
Time is now: 30th May 2024 - 22:54:00