Welcome Guest ( Log In | Register )

> Savage Oath - Savage Oath [ep] (2023), Epic Heavy Metal
post Jan 3 2024, 20:47:48
Post #1

𝕻𝕬𝕹𝕬𝕮𝕰𝕬
**********
Group: Металариец
Posts: 1,242
Releases: 746
On Forums: 11 years 10 months
Thanks: 16037 time(s)
Unknown


(IMG:https://metalarea.org/images/audiocovers/2024_Jan/acov_tid390637_thumb.jpg)

*Artist: Savage Oath
*Album: Savage Oath [ep]
*Year: 2023
*Genre: Epic Heavy Metal
*Country: United States (IMG:https://metalarea.org/forum/style_images/flags/United%20States.png)
*Format: mp3@CBR320kbps
*Size: 28MB

Tracklist:
1. Warlock's Trance 06:22
2. On We March 05:44
******************************
Total playing time: 12:06



Technical info
(IMG:https://metalarea.org/images/spectrogram/2024_Jan/598dd5e367f4373142f16e39f87bf36f.png)
Input File: 01 - Warlock\'s Trance.mp3
Channels : 2
Sample Rate : 44100
Precision : 16-bit
Duration : 00:06:22.72 = 16877864 samples = 28703.9 CDDA sectors
File Size : 15.7M
Bit Rate : 329k
Sample Encoding: MPEG audio (layer I, II or III)
Comments :
Title=Warlock's Trance
Artist=Savage Oath
Album=Savage Oath
Tracknumber=1
Year=2023
Genre=Heavy Metal



Register


Go to the top of the page
  Insert nick Quick quote
+Quote Post
 
Start new topic
Replies (1 - 7)
post Jan 3 2024, 21:19:19
Post #2

𝕻𝕬𝕹𝕬𝕮𝕰𝕬
**********
Group: Металариец
Posts: 1,242
Releases: 746
On Forums: 11 years 10 months
Thanks: 16037 time(s)
Unknown


FLAC 91MB
Register






Thanks:
Go to the top of the page
  Insert nick Quick quote
+Quote Post
post Jan 4 2024, 08:47:49
Post #3

Маньяк
**********
Group: Металариец
Posts: 1,189
Releases: 0
From: Isla de Margarita, Venezuela
On Forums: 5 years 3 months
Thanks: 374 time(s)
Venezuela


Very Good (IMG:style_emoticons/default/20.gif)

US Power-Metal
Go to the top of the page
  Insert nick Quick quote
+Quote Post
post Jan 4 2024, 21:13:34
Post #4

Три Литра
***
Group: Завсегдатай
Posts: 217
Releases: 0
On Forums: 9 years 5 months
Thanks: 44 time(s)
Unknown


Кайф! Спасибо релизеру!

Мелодично, олдскульно, эпично и достаточно бодро!

P.S. Кстати, а из свежачка такого плана что ещё посоветуете, господа хорошие?


Thanks:
Go to the top of the page
  Insert nick Quick quote
+Quote Post
post Jan 5 2024, 14:36:46
Post #5

так случиться может с каждым
***
Group: Завсегдатай
Posts: 209
Releases: 0
On Forums: 16 years 1 month
Thanks: 84 time(s)
Russian Federation


ЦИТАТА(Morda_Morda @ Jan 5 2024, 01:13:34) *
P.S. Кстати, а из свежачка такого плана что ещё посоветуете, господа хорошие?


прошлогодний Helms Deep - Treacherous Ways
ну какбэ не совсем именно ТАКОГО, но... Признаки "игры на одном поле" найти можно, при желании, а вообще, если вдруг пропустил, - наилучшие рекомендации!


Thanks:
Go to the top of the page
  Insert nick Quick quote
+Quote Post
post Jan 5 2024, 19:12:47
Post #6

Group: Подсевший
Posts: 25
Releases: 0
From: Симбирск
On Forums: 8 years 9 months
Thanks: 4 time(s)
Russian Federation


Morda_Morda, Ordalia - Odes For Victory послушай


Thanks:
Go to the top of the page
  Insert nick Quick quote
+Quote Post
post Jan 6 2024, 01:41:20
Post #7

Три Литра
***
Group: Завсегдатай
Posts: 217
Releases: 0
On Forums: 9 years 5 months
Thanks: 44 time(s)
Unknown


ЦИТАТА(EvgeniusLongus @ Jan 5 2024, 19:12:47) *
Morda_Morda, Ordalia - Odes For Victory послушай

Во, спасибо, приятная банда. (IMG:style_emoticons/default/9.gif)

Чуток бы побыстрее - пусть не всегда, но местами - но атмосфера в целом то, что надо.
То, чего и хотелось.
Говард, Толкин, Муркок, Нортон, Спрэг де Камп и так далее.

P.S. HELMS DEEP чуть позже слухану.
Go to the top of the page
  Insert nick Quick quote
+Quote Post
post Mar 1 2024, 05:38:36
Post #8

i listen to black metal
**************
Group: Металариец
Posts: 4,054
Releases: 150
From: Москва
On Forums: 17 years 3 months
Thanks: 2626 time(s)
Russian Federation


ЦИТАТА(Morda_Morda @ Jan 4 2024, 23:13:34) *
Кайф! Спасибо релизеру!

Мелодично, олдскульно, эпично и достаточно бодро!

P.S. Кстати, а из свежачка такого плана что ещё посоветуете, господа хорошие?

Edgeland - 2023 - Keepers of the light
Edge Of Forever - 2023 - Ritual

отлично зашли
Go to the top of the page
  Insert nick Quick quote
+Quote Post

Reply to this topicStart new topic
2 User(s) are reading this topic (2 Guests and 0 Anonymous Users)
0 Members:

 



- Lo-Fi Version Support form
Copyrights and abuse reports form
Time is now: 17th April 2024 - 22:32:47