Welcome Guest ( Log In | Register )

> Mureh - Путь Сквозь Тьму [ep] (2023), Post Black Metal/Blackened Hardcore Punk
post Jan 4 2024, 12:16:25
Post #1

Правь статус, ####!111
**************
Group: Металариец
Posts: 55,753
Releases: 1186
On Forums: 14 years 10 months
Thanks: 54455 time(s)
Russian Federation


(IMG:https://metalarea.org/images/audiocovers/2024_Jan/acov_tid390645_thumb.jpg)

*Artist: Mureh
*Album: Путь Сквозь Тьму [ep]
*Year: 2023
*Genre: Post Black Metal/Blackened Hardcore Punk
*Country: Russian Federation (IMG:https://metalarea.org/forum/style_images/flags/Russian%20Federation.png)
*Format: mp3@CBR320kbps
*Size: 45MB

Tracklist:
1. Surmu Da Gora
2. Истерия
3. Благими Намерениями
4. Karju
5. Вопреки
6. Мама, Мы Все Тяжело Больны (Кино Cover)
7. Конец
******************************
Total playing time: 18:28

Technical info
(IMG:https://metalarea.org/images/spectrogram/2024_Jan/da1474bd7804ece224659cf4e9032132.png)
Input File: 01 Surmu da gora.mp3
Channels : 2
Sample Rate : 44100
Precision : 16-bit
Duration : 00:02:22.98 = 6305374 samples = 10723.4 CDDA sectors
File Size : 5.72M
Bit Rate : 320k
Sample Encoding: MPEG audio (layer I, II or III)
Comments :
Title=Surmu da gora
Artist=Mureh
Album=Путь Сквозь Тьму
Tracknumber=1
Year=2023
Genre=Hardcore



Register


Go to the top of the page
  Insert nick Quick quote
+Quote Post
 
Start new topic
Replies (1 - 2)
post Jan 4 2024, 18:19:32
Post #2

gazing the void
****
Group: Металариец
Posts: 345
Releases: 6
On Forums: 6 years 11 months
Thanks: 384 time(s)
Zimbabwe


то в каждом обсуждении он есть, то молчит! (IMG:style_emoticons/default/25.gif)
повторяю свою просьбу не переименовывать название папки внутри архива.


Thanks:
(1) vdolghi,
Go to the top of the page
  Insert nick Quick quote
+Quote Post
post Apr 12 2024, 15:02:45
Post #3

Правь статус, ####!111
**************
Group: Металариец
Posts: 2,419
Releases: 388
From: Bretagne
On Forums: 15 years 10 months
Thanks: 4806 time(s)
France


preview + name your price
Go to the top of the page
  Insert nick Quick quote
+Quote Post

Reply to this topicStart new topic
1 User(s) are reading this topic (1 Guests and 0 Anonymous Users)
0 Members:

 



- Lo-Fi Version Support form
Copyrights and abuse reports form
Time is now: 15th April 2024 - 03:44:19