Welcome Guest ( Log In | Register )

> Nimetön Hauta - Pimeyteen Laskee Joki (2024), Atmospheric Black Metal
post Jan 5 2024, 16:45:03
Post #1

Правь статус, ####!111
**************
Group: Металариец
Posts: 7,463
Releases: 6831
From: Одесса
On Forums: 15 years 10 months
Thanks: 79483 time(s)
Ukraine


(IMG:https://metalarea.org/images/audiocovers/2024_Jan/acov_tid390713_thumb.jpg)

*Artist: Nimetön Hauta
*Album: Pimeyteen Laskee Joki
*Year: 2024
*Genre: Atmospheric Black Metal
*Country: Finland (IMG:https://metalarea.org/forum/style_images/flags/Finland.png)
*Format: mp3@CBR320kbps
*Size: 101MB

Tracklist:
1. Pimeämmät yöt, valottomat päivät 05:47
2. Luutarhan kivet 05:01
3. Pimeyteen laskee joki 04:46
4. Luuni maata koristaa 04:15
5. Varis 03:42
6. Kerran syntyneen, maaksi maatuneen 05:51
7. Hetki suden 03:33
8. Kipu on lupaus kuolemasta 05:53
9. Järvet III 03:44
******************************
Total playing time: 42:32



Extended info
BANDCAMP FLAC RIP


Technical info
(IMG:https://metalarea.org/images/spectrogram/2024_Jan/ec1533fb473d9324638a5f16cfc52dfc.png)
Input File: 05. Varis.mp3
Channels : 2
Sample Rate : 44100
Precision : 16-bit
Duration : 00:03:42.58 = 9815690 samples = 16693.4 CDDA sectors
File Size : 8.91M
Bit Rate : 320k
Sample Encoding: MPEG audio (layer I, II or III)
Comments :
Title=Varis
Artist=Nimeton Hauta
Album=Pimeyteen laskee joki
Tracknumber=5
Year=2024
Genre=Atmospheric Black Metal



Register


Go to the top of the page
  Insert nick Quick quote
+Quote Post
 
Start new topic
Replies (1 - 1)
post Mar 2 2024, 13:06:41
Post #2

***********
Group: Металариец
Posts: 1,565
Releases: 16
From: Москва
On Forums: 17 years 4 months
Thanks: 2248 time(s)
Russian Federation


Register
Go to the top of the page
  Insert nick Quick quote
+Quote Post

Reply to this topicStart new topic
1 User(s) are reading this topic (1 Guests and 0 Anonymous Users)
0 Members:

 



- Lo-Fi Version Support form
Copyrights and abuse reports form
Time is now: 22nd April 2024 - 04:12:36