Welcome Guest ( Log In | Register )

> Sexual Perverts - Sex Maniac...Forever (2024), Thrash Metal
post Jan 14 2024, 12:33:38
Post #1

Правь статус, ####!111
**************
Group: Металариец
Posts: 35,607
Releases: 26505
From: Г.Харьков
On Forums: 11 years 11 months
Thanks: 572850 time(s)
Ukraine


(IMG:https://metalarea.org/images/audiocovers/2024_Jan/acov_tid391028_thumb.jpg)

*Artist: Sexual Perverts
*Album: Sex Maniac...Forever
*Year: 2024
*Genre: Thrash Metal
*Country: Colombia (IMG:https://metalarea.org/forum/style_images/flags/Colombia.png)
*Format: mp3@CBR320kbps
*Size: 90MB

Tracklist:
1. El llamado (Intro)
2. Destilator
3. Nacidos para follar
4. Fuck'n'Roll
5. Mente enferma
6. Necrofilia
7. Night of Sex
8. Sex Maniacs
9. Anorgasmia
10. Toke de metal
11. Mente enferma
******************************
Total playing time: 39:05



Extended info
Esteban Ruiz Bass, Vocals (2014-present)
See also: ex-Fire of Death, ex-Hammerdeath, ex-Infernal Maniak, ex-Virgin Killer
Ivan Marcelo Reyes Guitars (2017-present)
See also: ex-War Maniacs
Shirley López Guitars (2024-present)
See also: Virgin Killer, ex-Lucifera, ex-BlackMamba, ex-Mala Hierba


Technical info
(IMG:https://metalarea.org/images/spectrogram/2024_Jan/1417faa85a046743cfcb50f4de194923.png)
Input File: 08 - Sex Maniac´s.mp3
Channels : 2
Sample Rate : 44100
Precision : 16-bit
Duration : 00:04:28.50 = 11840894 samples = 20137.6 CDDA sectors
File Size : 10.8M
Bit Rate : 322k
Sample Encoding: MPEG audio (layer I, II or III)
Comments :
Title=Sex Maniac´s
Artist=Sexual Perverts
Album=Sex Maniac... Forever
Tracknumber=8
Year=2024



Register


Go to the top of the page
  Insert nick Quick quote
+Quote Post
 
Start new topic
Replies (1 - 6)
post Jan 14 2024, 17:50:16
Post #2

Common dweller of hell
**************
Group: Металариец
Posts: 5,346
Releases: 12
From: Dnipro
On Forums: 15 years 9 months
Thanks: 2169 time(s)
Ukraine


Отличный олдскул (IMG:style_emoticons/default/20.gif)
Go to the top of the page
  Insert nick Quick quote
+Quote Post
post Jan 14 2024, 18:24:53
Post #3

Шесть Литров
******
Group: Металариец
Posts: 518
Releases: 0
From: TheМля
On Forums: 17 years 6 months
Thanks: 178 time(s)
Belarus


isvili,
Дауж, от завываний вокалера можно словить приход
Go to the top of the page
  Insert nick Quick quote
+Quote Post
post Jan 14 2024, 18:29:05
Post #4

Full-of-Hate
**************
Group: Металариец
Posts: 5,696
Releases: 0
From: Moscow
On Forums: 14 years 9 months
Thanks: 6958 time(s)
Russian Federation


Ироничная хрень. Забавный материал, но вместе с тем подан в жутко однообразной манере.
В арте для ютуб-ролика каждый первый металариец узнает себя. (IMG:style_emoticons/default/m0114.gif)
Это как молиться, поститься и слушать Радонеж. Только пить дешевое пиво, дpoчить и слушать Металлику.
Go to the top of the page
  Insert nick Quick quote
+Quote Post
post Jan 14 2024, 19:50:32
Post #5

Common dweller of hell
**************
Group: Металариец
Posts: 5,346
Releases: 12
From: Dnipro
On Forums: 15 years 9 months
Thanks: 2169 time(s)
Ukraine


ЦИТАТА(dimpa @ Jan 14 2024, 19:24:53) *
isvili,
Дауж, от завываний вокалера можно словить приход

Schmier тоже приблизительно так же завывал на первых альбомах Destruction, но от этого они не перестали быть классикой жанра.

Go to the top of the page
  Insert nick Quick quote
+Quote Post
post Jan 14 2024, 21:03:54
Post #6

ГОСПОДЬ
**************
Group: Металариец
Posts: 5,373
Releases: 164
On Forums: 13 years 8 months
Thanks: 7817 time(s)
Unknown


ЦИТАТА(isvili @ Jan 14 2024, 21:50:32) *
Schmier тоже приблизительно так же завывал на первых альбомах Destruction, но от этого они не перестали быть классикой жанра.

Они не могут перестать быть классикой жанра, потому что никогда ею не были.
Go to the top of the page
  Insert nick Quick quote
+Quote Post
post Jan 15 2024, 17:45:02
Post #7

Аббат-батяня, батяня-Аббат
**************
Group: Металариец
Posts: 3,539
Releases: 0
On Forums: 15 years 2 weeks
Thanks: 2288 time(s)
Russian Federation


ЦИТАТА(FullofHate @ Jan 14 2024, 22:29:05) *
дpoчить

Впервые слышу, что это входит в обязательный райдер металхеда вообще и трешера в частности. Хотя времена меняются, а я старомоден. И упоминается металареец, а не металхэд и/ или трешер. Так, что вполне.

Альбом отслушал секунд 10 на ютубе и выключил навсегда.


Thanks:
Go to the top of the page
  Insert nick Quick quote
+Quote Post

Reply to this topicStart new topic
2 User(s) are reading this topic (2 Guests and 0 Anonymous Users)
0 Members:

 



- Lo-Fi Version Support form
Copyrights and abuse reports form
Time is now: 19th April 2024 - 22:26:15