Welcome Guest ( Log In | Register )

> Knoll - As Spoken (2024), Death Metal/Grindcore
post Jan 25 2024, 13:00:56
Post #1

Serial Uploader
Group Icon
Group: V.I.P
Posts: 42,408
Releases: 40477
From: Lithuania
On Forums: 15 years 10 months
Thanks: 517043 time(s)
Lithuania


(IMG:https://metalarea.org/images/audiocovers/2024_Jan/acov_tid391461_thumb.jpg)

*Artist: Knoll
*Album: As Spoken
*Year: 2024
*Genre: Death Metal/Grindcore
*Country: United States (IMG:https://metalarea.org/forum/style_images/flags/United%20States.png)
*Format: mp3@CBR320kbps
*Size: 94MB

Tracklist:
1. As Spoken 05:23
2. Offering 02:19
3. Wept Fountain 02:40
4. Revile Of Light 06:04
5. Mereward 05:21
6. Guardian Bind 02:06
7. Unto Viewing 02:32
8. Portrait 05:27
9. Utterance 03:13
10. Fettered Oath 01:35
11. Shall It Be 03:51
******************************
Total playing time: 40:31


Preview 2

(IMG:https://metalarea.org/images/youtube.png)

Technical info
(IMG:https://metalarea.org/images/spectrogram/2024_Jan/2abac67321f84a737f8be322944185ab.png)
Input File: 02 - Offering.mp3
Channels : 2
Sample Rate : 44100
Precision : 16-bit
Duration : 00:02:19.76 = 6163504 samples = 10482.1 CDDA sectors
File Size : 5.67M
Bit Rate : 324k
Sample Encoding: MPEG audio (layer I, II or III)
Comments :
Title=Offering
Artist=Knöll
Album=As Spoken
Tracknumber=2/11
Year=2024
Discnumber=1/1



Register


Go to the top of the page
  Insert nick Quick quote
+Quote Post
 
Start new topic
Replies (1 - 5)
post Jan 26 2024, 15:28:54
Post #2

Литр
*
Group: Подсевший
Posts: 64
Releases: 0
On Forums: 6 years 2 months
Thanks: 65 time(s)
Unknown


Как и прежде - интересный, своеобразно навороченный материал с мрачной, намеренно искажённой подачей, но вот death ли это grind? Хм.. во всяком случае не в традиционном понимании. Воспринимается в большей мере как чёрное искусство. Впрочем, это и не важно на самом деле.


Thanks:
Go to the top of the page
  Insert nick Quick quote
+Quote Post
post Feb 1 2024, 21:15:53
Post #3

Group: Подсевший
Posts: 12
Releases: 0
On Forums: 2 months 2 weeks
Thanks: 0 time(s)
Unknown


Highly Recommended, thanks for this one!
Go to the top of the page
  Insert nick Quick quote
+Quote Post
post Feb 1 2024, 21:41:02
Post #4

Шесть Литров
******
Group: Металариец
Posts: 585
Releases: 0
From: Город Герой Москва!
On Forums: 17 years 7 months
Thanks: 54 time(s)
Russian Federation


Альбом не слушал пока что, но посмотрел клип. При просмотре сразу группа Портал на ум пришло). Очень уж похоже
Go to the top of the page
  Insert nick Quick quote
+Quote Post
post Mar 22 2024, 08:12:11
Post #5

antithesis
**************
Group: Металариец
Posts: 3,983
Releases: 36
From: VRN
On Forums: 13 years 10 months
Thanks: 2681 time(s)
Russian Federation


reup pls
Go to the top of the page
  Insert nick Quick quote
+Quote Post
post Apr 1 2024, 20:41:38
Post #6

Маньяк
**********
Group: Металариец
Posts: 1,190
Releases: 0
From: Isla de Margarita, Venezuela
On Forums: 5 years 3 months
Thanks: 374 time(s)
Venezuela


Dead Links
Go to the top of the page
  Insert nick Quick quote
+Quote Post

Reply to this topicStart new topic
1 User(s) are reading this topic (1 Guests and 0 Anonymous Users)
0 Members:

 



- Lo-Fi Version Support form
Copyrights and abuse reports form
Time is now: 19th April 2024 - 23:25:27