Welcome Guest ( Log In | Register )

Объявления

* gmail.com упорно продолжает считать почту с нас "unsolicited" и отбивает в том числе и письма активации, поэтому просьба использовать альтернативные почтовые ящики.
------------
* gmail.com continues reject all mail from us as "unsolicited" (activation mails too) therefore please use alternate mail servers.
 
Reply to this topicStart new topic
> Krionik - Forlorn Abominations [ep] (2024), Thrash/Death Metal (D5)
post Jan 31 2024, 06:23:18
Post #1

Правь статус, ####!111
**************
Group: Металариец
Posts: 9,084
Releases: 7319
On Forums: 13 years 6 months
Thanks: 128918 time(s)
Italy


(IMG:https://metalarea.org/images/audiocovers/2024_Jan/acov_tid391733_thumb.jpg)

*Artist: Krionik
*Album: Forlorn Abominations [ep]
*Year: 2024
*Genre: Thrash/Death Metal
*Country: Sweden (IMG:https://metalarea.org/forum/style_images/flags/Sweden.png)
*Format: mp3@CBR320kbps
*Size: 38MB

Tracklist:
1.The Sunken City 04:01
2.Black Goat of the Woods 02:06
3.Unhallowed Eve 03:45
4.Winds of Pest 03:37
5.Graves of Oblivion 03:02
******************************
Total playing time: 16:31



Technical info
(IMG:https://metalarea.org/images/spectrogram/2024_Jan/c55087fac3335280cdd39653955d5cb9.png)
Input File: 4.Winds of Pest.mp3
Channels : 2
Sample Rate : 44100
Precision : 16-bit
Duration : 00:03:37.00 = 9569700 samples = 16275 CDDA sectors
File Size : 8.88M
Bit Rate : 327k
Sample Encoding: MPEG audio (layer I, II or III)
Comments :
Title=Winds of Pest
Artist=Krionik
Album=Forlorn Abominations
Tracknumber=4
Year=2024
Genre=Thrash Metal
Discnumber=1



Register


Go to the top of the page
  Insert nick Quick quote
+Quote Post

Reply to this topicStart new topic
1 User(s) are reading this topic (1 Guests and 0 Anonymous Users)
0 Members:

 



- Lo-Fi Version Support form
Copyrights and abuse reports form
Time is now: 14th June 2024 - 09:35:56