Welcome Guest ( Log In | Register )

> Releases Upload / Добавление релизов

Добавить релиз тут / Click here to add release
Рекомендованные обменники / Recommended file shares

> Hail Conjurer - Satanic Phenomenology (2024), Black Metal (D13)
post Jan 31 2024, 15:43:12
Post #1

Правь статус, ####!111
**************
Group: Металариец
Posts: 35,018
Releases: 26033
From: Г.Харьков
On Forums: 11 years 9 months
Thanks: 559825 time(s)
Ukraine


(IMG:https://metalarea.org/images/audiocovers/2024_Jan/acov_tid391756_thumb.jpg)

*Artist: Hail Conjurer
*Album: Satanic Phenomenology
*Year: 2024
*Genre: Black Metal
*Country: Finland (IMG:https://metalarea.org/forum/style_images/flags/Finland.png)
*Format: mp3@CBR320kbps
*Size: 82MB

Tracklist:
1. Power. Will. Hail 02:32
2. Demonic Cover of Earth 03:43
3. Numinous 02:25
4. Cipher 03:27
5. Nox 03:05
6. Katharsis 03:25
7. Käärmeen ylistys 02:17
8. Fiery Serpent 05:12
9. Ritus Paganus 09:42
******************************
Total playing time: 35:48




Extended info
Hail Conjurer Everything
See also: Devil's Gateway, Hooded Menace, Initiated, Regere Sinister, Ride for Revenge, Horse Latitudes, ex-Botnia, Absava, Pussies, ex-Dalin Ystävät, ex-Karaistus, ex-Perikato


Technical info
(IMG:https://metalarea.org/images/spectrogram/2024_Jan/a490c379c961a182f54c7ec75db96df2.png)
Input File: 08 - Fiery Serpent.mp3
Channels : 2
Sample Rate : 44100
Precision : 16-bit
Duration : 00:05:12.97 = 13801845 samples = 23472.5 CDDA sectors
File Size : 12.5M
Bit Rate : 320k
Sample Encoding: MPEG audio (layer I, II or III)
Comments :
Title=Fiery Serpent
Artist=Hail Conjurer
Album=Satanic Phenomenology
Tracknumber=8
Year=2024



Register


Go to the top of the page
  Insert nick Quick quote
+Quote Post
 
Start new topic
Replies (1 - 3)
post Feb 1 2024, 08:06:41
Post #2

While Waiting the Worms
***********
Group: Металариец
Posts: 1,609
Releases: 0
On Forums: 10 years 2 months
Thanks: 2530 time(s)
Unknown


Хороший.
Go to the top of the page
  Insert nick Quick quote
+Quote Post
post Feb 7 2024, 19:32:28
Post #3

кручу наждак
**************
Group: Металариец
Posts: 6,412
Releases: 109
From: Самара
On Forums: 13 years 9 months
Thanks: 4962 time(s)
Russian Federation


Заунывная полуэмбиентная херня.
Go to the top of the page
  Insert nick Quick quote
+Quote Post
post Feb 12 2024, 07:25:23
Post #4

Восемь Литров
********
Group: Металариец
Posts: 874
Releases: 0
From: Vilnius
On Forums: 17 years 5 days
Thanks: 351 time(s)
Lithuania


Занудный.
Go to the top of the page
  Insert nick Quick quote
+Quote Post

Reply to this topicStart new topic
2 User(s) are reading this topic (2 Guests and 0 Anonymous Users)
0 Members:

 



- Lo-Fi Version Support form
Copyrights and abuse reports form
Time is now: 23rd February 2024 - 11:37:54