Welcome Guest ( Log In | Register )

Объявления

* gmail.com упорно продолжает считать почту с нас "unsolicited" и отбивает в том числе и письма активации, поэтому просьба использовать альтернативные почтовые ящики.
------------
* gmail.com continues reject all mail from us as "unsolicited" (activation mails too) therefore please use alternate mail servers.
> Satans Grasp - Unholy Forces [ep] (2024), Black/Thrash Metal
post Jan 31 2024, 21:37:30
Post #1

Правь статус, ####!111
**************
Group: Металариец
Posts: 35,884
Releases: 26737
From: Г.Харьков
On Forums: 12 years 1 week
Thanks: 579390 time(s)
Ukraine


(IMG:https://metalarea.org/images/audiocovers/2024_Jan/acov_tid391769_thumb.jpg)

*Artist: Satans Grasp
*Album: Unholy Forces [ep]
*Year: 2024
*Genre: Black/Thrash Metal
*Country: United States (IMG:https://metalarea.org/forum/style_images/flags/United%20States.png)
*Format: mp3@CBR320kbps
*Size: 27MB

Tracklist:
1. Caught in the Eternal Web of Evil
2. Satans Grasp
3. Crusade
4. Unholy Forces
5. Paralysis
6. 7th Realm of Hell
******************************
Total playing time: 11:25



Extended info
Gavynn Bass, Vocals
Jaime Drums
Bagel Guitars
Chris Guitars, Vocals


Technical info
(IMG:https://metalarea.org/images/spectrogram/2024_Jan/be237b917d51816aac214d56e2109a75.png)
Input File: 05 - Paralysis.mp3
Channels : 2
Sample Rate : 44100
Precision : 16-bit
Duration : 00:03:20.00 = 8820000 samples = 15000 CDDA sectors
File Size : 8.15M
Bit Rate : 326k
Sample Encoding: MPEG audio (layer I, II or III)
Comments :
Title=Paralysis
Artist=SATANS GRASP
Album=Unholy Forces
Tracknumber=5
Year=2024-02-01
Genre=Metal
Discnumber=1



Register


Go to the top of the page
  Insert nick Quick quote
+Quote Post
 
Start new topic
Replies (1 - 1)
post Apr 3 2024, 00:01:41
Post #2

_ - = # Thrashogolic # = - _ ... а давайте поржём все вместе
**************
Group: Металариец
Posts: 22,344
Releases: 4444
From: 404
On Forums: 13 years 11 months
Thanks: 29084 time(s)
Ukraine


В первой композиции 1. Caught In The Eternal Web of Evil с 01:25 идёт проигрыш из похоронного марша Шопена,
причём такой страшной версии я ещё нигде не слышал: как если бы трёноги марсиан из "Войны Миров" затянули бы этот мотив своим утробным звуком. (IMG:style_emoticons/default/fear.gif)
Go to the top of the page
  Insert nick Quick quote
+Quote Post

Reply to this topicStart new topic
1 User(s) are reading this topic (1 Guests and 0 Anonymous Users)
0 Members:

 



- Lo-Fi Version Support form
Copyrights and abuse reports form
Time is now: 18th May 2024 - 01:57:39