Welcome Guest ( Log In | Register )

Объявления

* gmail.com упорно продолжает считать почту с нас "unsolicited" и отбивает в том числе и письма активации, поэтому просьба использовать альтернативные почтовые ящики.
------------
* gmail.com continues reject all mail from us as "unsolicited" (activation mails too) therefore please use alternate mail servers.
> Persefone - Lingua Ignota: Part I [ep] (2024), Progressive/Melodic Death Metal (D)
post Feb 1 2024, 12:08:42
Post #1

Serial Uploader
Group Icon
Group: V.I.P
Posts: 42,601
Releases: 40667
From: Lithuania
On Forums: 15 years 11 months
Thanks: 521230 time(s)
Lithuania


(IMG:https://metalarea.org/images/audiocovers/2024_Feb/acov_tid391778_thumb.jpg)

*Artist: Persefone
*Album: Lingua Ignota: Part I [ep]
*Year: 2024
*Genre: Progressive/Melodic Death Metal
*Country: Andorra (IMG:https://metalarea.org/forum/style_images/flags/Andorra.png)
*Format: mp3@CBR320kbps
*Size: 60MB

Tracklist:
1. Sounds and Vessels 02:16
2. One Word 05:57
3. The Equable 06:28
4. Lingua Ignota 07:34
5. Abyssal Communication 03:46
******************************
Total playing time: 26:01





(IMG:https://metalarea.org/images/youtube.png)

Technical info
(IMG:https://metalarea.org/images/spectrogram/2024_Feb/19bd531c4de3ca989e65420ec4c11c82.png)
Input File: 02. One Word.mp3
Channels : 2
Sample Rate : 44100
Precision : 16-bit
Duration : 00:05:58.01 = 15788021 samples = 26850.4 CDDA sectors
File Size : 14.4M
Bit Rate : 322k
Sample Encoding: MPEG audio (layer I, II or III)
Comments :
Title=One Word
Artist=Persefone
Album=Lingua Ignota: Part I
Tracknumber=2/5
Year=2024
Discnumber=1/1



Register


Go to the top of the page
  Insert nick Quick quote
+Quote Post
 
Start new topic
Replies (1 - 2)
post Feb 1 2024, 16:19:18
Post #2

к приему виски готов
*********
Group: Металариец
Posts: 957
Releases: 3
From: Украина
On Forums: 15 years 3 months
Thanks: 565 time(s)
Ukraine


эти парни делают качественный музон (IMG:style_emoticons/default/20.gif) Хорошая епиха, жду 2 часть.


Thanks:
Go to the top of the page
  Insert nick Quick quote
+Quote Post
post Feb 1 2024, 19:16:08
Post #3

Glorious Imperator
**********
Group: Металариец
Posts: 1,113
Releases: 0
From: Sweden
On Forums: 15 years 2 months
Thanks: 65 time(s)
Sweden


Thank you.
Go to the top of the page
  Insert nick Quick quote
+Quote Post

Reply to this topicStart new topic
2 User(s) are reading this topic (2 Guests and 0 Anonymous Users)
0 Members:

 



- Lo-Fi Version Support form
Copyrights and abuse reports form
Time is now: 26th May 2024 - 09:13:19