Welcome Guest ( Log In | Register )

Объявления

* gmail.com упорно продолжает считать почту с нас "unsolicited" и отбивает в том числе и письма активации, поэтому просьба использовать альтернативные почтовые ящики.
------------
* gmail.com continues reject all mail from us as "unsolicited" (activation mails too) therefore please use alternate mail servers.
> Night Slasher - Night Slasher (2024), Black/Speed Metal
post Feb 5 2024, 12:13:14
Post #1

Правь статус, ####!111
**************
Group: Металариец
Posts: 36,412
Releases: 27150
From: Г.Харьков
On Forums: 12 years 2 months
Thanks: 591282 time(s)
Ukraine


(IMG:https://metalarea.org/images/audiocovers/2024_Feb/acov_tid392001_thumb.jpg)

*Artist: Night Slasher
*Album: Night Slasher
*Year: 2024
*Genre: Black/Speed Metal
*Country: Lithuania (IMG:https://metalarea.org/forum/style_images/flags/Lithuania.png)
*Format: mp3@CBR320kbps
*Size: 91MB

Tracklist:
1. Ice 04:30
2. Black Trip 05:38
3. Clyster Lizard 03:50
4. Liver Ripper 06:08
5. Pit of Hate 04:46
6. Ablaze 05:07
7. Towers 06:10
8. Satan in the Hall 03:52
******************************
Total playing time: 40:01




Extended info
Tomas Ivanovas Bass, Vocals (backing)
Dmitrijus Matvejevas Drums
Juozapas Bočkus Guitars, Vocals (backing)
Laurynas Karka Vocals



Technical info
(IMG:https://metalarea.org/images/spectrogram/2024_Feb/228c9abcf415b9d523e587ba4f696ee9.png)
Input File: 07 - Towers.mp3
Channels : 2
Sample Rate : 44100
Precision : 16-bit
Duration : 00:06:10.52 = 16339844 samples = 27788.9 CDDA sectors
File Size : 14.8M
Bit Rate : 320k
Sample Encoding: MPEG audio (layer I, II or III)
Comments :
Title=Towers
Artist=Night Slasher
Album=Night Slasher
Tracknumber=7
Year=2024



Register


Go to the top of the page
  Insert nick Quick quote
+Quote Post
 
Start new topic
Replies (1 - 3)
post Feb 5 2024, 13:54:13
Post #2

_ - = # Thrashogolic # = - _ ... а давайте поржём все вместе
**************
Group: Металариец
Posts: 22,800
Releases: 4444
From: 404
On Forums: 14 years 1 month
Thanks: 29396 time(s)
Ukraine


bandcamp info:
Formed in Vilnius back in 2014 under the name "Alcotopia" the band released their first and album "It Hits The Spot". After the first release the creative direction of the band had started morphing into something a lot darker. To match the intensity of the new material the band knew they had to take things to the next level and so "Night Slasher" was born.


Thanks:
Go to the top of the page
  Insert nick Quick quote
+Quote Post
post Feb 5 2024, 14:31:36
Post #3

Group: Подсевший
Posts: 21
Releases: 0
On Forums: 4 years 10 months
Thanks: 16 time(s)
Armenia


great release, recommended.


Thanks:
(1) mishasha,
Go to the top of the page
  Insert nick Quick quote
+Quote Post
post Feb 14 2024, 08:12:05
Post #4

hearer & reader
**************
Group: Металариец
Posts: 10,944
Releases: 234
From: Moscow
On Forums: 16 years 10 months
Thanks: 13709 time(s)
Russian Federation




Thanks:
Go to the top of the page
  Insert nick Quick quote
+Quote Post

Reply to this topicStart new topic
1 User(s) are reading this topic (1 Guests and 0 Anonymous Users)
0 Members:

 



- Lo-Fi Version Support form
Copyrights and abuse reports form
Time is now: 15th July 2024 - 21:37:45